[ Сегодня на трекере фрилич! Идет свободное скачивание без начисления Download ]

Покровитель / The Protector (Джеймс Гликенхаус / James Glickenhaus) [1985 г., Боевик, триллер, драма, криминал, BDRip, 720p] 2 AVO (Живов, Ошкурков) + VO (неизвестный) + MVO + DVO + Original (Chi)

 

Создавать темы 07-Янв-2015 04:50

Покровитель / The Protector
Год выпуска: 1985
Производство: Гонконг, США
Жанр: Боевик, триллер, драма, криминал
Продолжительность: 01:35:29
Перевод: Авторский (одноголосый, закадровый) Юрий Живов, Максим Ошкурков
Перевод: Любительский (одноголосый, закадровый)неизвестный
Перевод: Профессиональный (многоголосый, закадровый) MVO
Перевод: Профессиональный (двухголосый, закадровый) DVO
Оригинальный аудиопоток: китайский
Субтитры: отсутствуют
Режиссер: Джеймс Гликенхаус / James Glickenhaus
В ролях: Джеки Чан, Дэнни Айелло, Сэнди Александр, Виктор Арнольд, Ким Басс, Ирен Бритто, Джесси Камерон-Гликенхаус, Аль Серулло, Рой Чяо, Ричард Кларк
Описание: В Нью-Йорке на элитном показе мод похищают дочь влиятельного миллионера. На этой же вечеринке работал охранником полицейский Билли Вонг. Отстраненный от своей работы за излишнюю горячность, лишь он один способен спасти девушку. Отправившись в Гонконг, Билли сразу же попадает в самый центр наркобизнеса…
, КиноПоиск
Качество видео: BDRip
Контейнер: MKV
Стандарт разрешения: 720p
Видео кодек: H.264
Аудио кодек: AC3
Видео: 1280x 676, 23.976 fps, 6789 Kbps, 0.327 Bt/Px
Аудио : AC-3, 192 Kbps, 2 ch, 48.0 KHz Rus Живов, Ошкурков
Аудио : AC-3, 192 Kbps, 2 ch, 48.0 KHz Rus неизвестный
Аудио : AC-3, 192 Kbps, 2 ch, 48.0 KHz Rus MVO
Аудио : AC-3, 192 Kbps, 2 ch, 48.0 KHz Rus DVO
Аудио : AC-3, 448 Kbps, 6 ch, 48.0 KHz Chi Original

Media Info

H:\КИНОФИЛЬМЫ\The Protector.mkv
General
Unique ID : 180195543690045949865023232979043236717 (0x8790663B64DA11D5AB098B7AB3F63B6D)
Complete name : H:\КИНОФИЛЬМЫ\The Protector.mkv
Format : Matroska
Format version : Version 1
File size : 5.71 GiB
Duration : 1h 35mn
Overall bit rate : 8 560 Kbps
Encoded date : UTC 2015-01-03 05:26:47
Writing application : mkvmerge v2.5.3 ('Boogie') built on Mar 7 2009 15:00:41
Writing library : libebml v0.7.7 + libmatroska v0.8.1
Video #1
ID : 1
Format : AVC
Format/Info : Advanced Video Codec
Format profile : [email protected]
Format settings, CABAC : Yes
Format settings, ReFrames : 9 frames
Codec ID : V_MPEG4/ISO/AVC
Duration : 1h 35mn
Bit rate : 6 789 Kbps
Width : 1 280 pixels
Height : 676 pixels
Display aspect ratio : 1.893
Frame rate mode : Constant
Frame rate : 23.976 fps
Color space : YUV
Chroma subsampling : 4:2:0
Bit depth : 8 bits
Scan type : Progressive
Bits/(Pixel*Frame) : 0.327
Stream size : 4.53 GiB (79%)
Writing library : x264 core 130 r2273 b3065e6
Encoding settings : cabac=1 / ref=9 / deblock=1:-3:-3 / analyse=0x3:0x133 / me=umh / subme=11 / psy=1 / psy_rd=1.00:0.10 / mixed_ref=1 / me_range=32 / chroma_me=1 / trellis=2 / 8x8dct=1 / cqm=0 / deadzone=21,11 / fast_pskip=1 / chroma_qp_offset=-3 / threads=6 / lookahead_threads=1 / sliced_threads=0 / nr=0 / decimate=1 / interlaced=0 / bluray_compat=0 / constrained_intra=0 / bframes=8 / b_pyramid=2 / b_adapt=2 / b_bias=0 / direct=1 / weightb=1 / open_gop=0 / weightp=2 / keyint=250 / keyint_min=23 / scenecut=40 / intra_refresh=0 / rc_lookahead=50 / rc=crf / mbtree=1 / crf=18.0 / qcomp=0.60 / qpmin=0 / qpmax=51 / qpstep=4 / ip_ratio=1.40 / aq=1:1.00
Language : Chinese
Default : Yes
Forced : No
Audio #2
ID : 2
Format : AC-3
Format/Info : Audio Coding 3
Mode extension : CM (complete main)
Format settings, Endianness : Big
Codec ID : A_AC3
Duration : 1h 35mn
Bit rate mode : Constant
Bit rate : 192 Kbps
Channel(s) : 2 channels
Channel positions : Front: L R
Sampling rate : 48.0 KHz
Bit depth : 16 bits
Compression mode : Lossy
Stream size : 131 MiB (2%)
Title : AVO Живов
Language : Russian
Default : Yes
Forced : No
Audio #3
ID : 3
Format : AC-3
Format/Info : Audio Coding 3
Mode extension : CM (complete main)
Format settings, Endianness : Big
Codec ID : A_AC3
Duration : 1h 35mn
Bit rate mode : Constant
Bit rate : 192 Kbps
Channel(s) : 2 channels
Channel positions : Front: L R
Sampling rate : 48.0 KHz
Bit depth : 16 bits
Compression mode : Lossy
Stream size : 131 MiB (2%)
Title : AVO Ошурков
Language : Russian
Default : No
Forced : No
Audio #4
ID : 4
Format : AC-3
Format/Info : Audio Coding 3
Mode extension : CM (complete main)
Format settings, Endianness : Big
Codec ID : A_AC3
Duration : 1h 35mn
Bit rate mode : Constant
Bit rate : 192 Kbps
Channel(s) : 2 channels
Channel positions : Front: L R
Sampling rate : 48.0 KHz
Bit depth : 16 bits
Compression mode : Lossy
Stream size : 131 MiB (2%)
Title : VO К-9
Language : Russian
Default : No
Forced : No
Audio #5
ID : 5
Format : AC-3
Format/Info : Audio Coding 3
Mode extension : CM (complete main)
Format settings, Endianness : Big
Codec ID : A_AC3
Duration : 1h 35mn
Bit rate mode : Constant
Bit rate : 192 Kbps
Channel(s) : 2 channels
Channel positions : Front: L R
Sampling rate : 48.0 KHz
Bit depth : 16 bits
Compression mode : Lossy
Stream size : 131 MiB (2%)
Title : VO Неизвестный
Language : Russian
Default : No
Forced : No
Audio #6
ID : 6
Format : AC-3
Format/Info : Audio Coding 3
Mode extension : CM (complete main)
Format settings, Endianness : Big
Codec ID : A_AC3
Duration : 1h 35mn
Bit rate mode : Constant
Bit rate : 192 Kbps
Channel(s) : 2 channels
Channel positions : Front: L R
Sampling rate : 48.0 KHz
Bit depth : 16 bits
Compression mode : Lossy
Stream size : 131 MiB (2%)
Title : MVO
Language : Russian
Default : No
Forced : No
Audio #7
ID : 7
Format : AC-3
Format/Info : Audio Coding 3
Mode extension : CM (complete main)
Format settings, Endianness : Big
Codec ID : A_AC3
Duration : 1h 35mn
Bit rate mode : Constant
Bit rate : 192 Kbps
Channel(s) : 2 channels
Channel positions : Front: L R
Sampling rate : 48.0 KHz
Bit depth : 16 bits
Compression mode : Lossy
Stream size : 131 MiB (2%)
Title : DVO
Language : Russian
Default : No
Forced : No
Audio #8
ID : 8
Format : AC-3
Format/Info : Audio Coding 3
Mode extension : CM (complete main)
Format settings, Endianness : Big
Codec ID : A_AC3
Duration : 1h 35mn
Bit rate mode : Constant
Bit rate : 448 Kbps
Channel(s) : 6 channels
Channel positions : Front: L C R, Side: L R, LFE
Sampling rate : 48.0 KHz
Bit depth : 16 bits
Compression mode : Lossy
Stream size : 306 MiB (5%)
Language : Chinese
Default : No
Forced : No

log x.264

x264 [info]: frame I:908   Avg QP:16.64  size:115093
x264 [info]: frame P:27285 Avg QP:19.74 size: 53916
x264 [info]: frame B:109121 Avg QP:21.73 size: 31202
x264 [info]: consecutive B-frames: 1.3% 1.6% 4.9% 19.5% 13.9% 44.3% 5.3% 2.5% 7.0%
x264 [info]: mb I I16..4: 3.0% 85.9% 11.1%
x264 [info]: mb P I16..4: 2.1% 34.4% 2.3% P16..4: 23.8% 26.7% 8.7% 0.7% 0.0% skip: 1.4%
x264 [info]: mb B I16..4: 0.8% 10.3% 0.3% B16..8: 34.6% 24.7% 4.7% direct:14.0% skip:10.6% L0:47.2% L1:37.5% BI:15.3%
x264 [info]: 8x8 transform intra:89.4% inter:74.3%
x264 [info]: coded y,uvDC,uvAC intra: 89.0% 92.5% 70.4% inter: 58.2% 66.8% 15.2%
x264 [info]: i16 v,h,dc,p: 65% 12% 3% 19%
x264 [info]: i8 v,h,dc,ddl,ddr,vr,hd,vl,hu: 9% 8% 6% 9% 13% 14% 13% 13% 15%
x264 [info]: i4 v,h,dc,ddl,ddr,vr,hd,vl,hu: 28% 12% 4% 6% 11% 11% 10% 8% 10%
x264 [info]: i8c dc,h,v,p: 45% 23% 18% 14%
x264 [info]: Weighted P-Frames: Y:10.8% UV:5.6%
x264 [info]: ref P L0: 35.7% 11.3% 18.5% 9.2% 7.3% 5.8% 5.0% 3.4% 3.2% 0.6% 0.0%
x264 [info]: ref B L0: 62.2% 15.2% 8.6% 4.8% 3.8% 3.2% 1.7% 0.5%
x264 [info]: ref B L1: 89.2% 10.8%
x264 [info]: kb/s:6956.95
x264 [total]: encoded 137314 frames, 3.25 fps, 6956.95 kb/s

Скриншоты

Яндекс.Метрика
Рейтинг@Mail.ru