[ Сегодня на трекере фрилич! Идет свободное скачивание без начисления Download ]

Человеческая революция / Human Revolution (Мо Шариф / Moe Charif) [2014 г., короткометражка, фантастика, боевик, WEB-DLRip, 720p] DVO + UKR (Dub)

 

Создавать темы 07-Янв-2015 04:49

-Человеческая революция / Human Revolution-- Производство: США, Dcode Films
Год выпуска: 2014 г.
Жанр: короткометражка, фантастика, боевик
Продолжительность: 00:12:17
Мировая премьера: 25 марта 2014
Перевод №1: Профессиональный (двухголосый, закадровый) [Русский (Петр Гланц, Инна Королёва)]
Перевод №2: Профессиональный (полное дублирование) [Украинский (PlayUA)]
Режиссер: Мо Шариф / Moe Charif-В ролях: Шариф, Лианнет Боррего, Энтони Короне, Шайна Николь Э’Орио, Хуан С. Бофилл, Уолтер Гарсиа, Шон Хэмлин, Кевин Хьюмс-Описание: Группа энтузиастов под предводительством Мо Шарифа представила на суд общественности короткометражный фильм по мотивам Deus Ex: Human Revolution собственного производства. Интересен он в первую очередь тем, что по степени исполнения вплотную приблизился к профессиональным работам — тут вам и достоверные CGI-сцены, и цепкая режиссура, и весьма недурственная игра актеров.
Несмотря на то, что фильм основан на вселенной одноименной игры, его сюжет с событиями Human Revolution связан довольно слабо. Акцент делается на отношениях Адама Дженсена, начальника службы безопасности Sarif Industries, и его бывшей подружки Меган Рид, которая возглавляла отдел по разработке кибернетических протезов в той же корпорации. Рид похищают иллюминаты, чтобы под страхом смерти заставить ее активировать какой-то таинственный девайс. Своим нежеланием сотрудничать она выигрывает время для Дженсена, который, будучи уже киборгом, спешит к ней на выручку.-
Качество видео: WEB-DLRip
Контейнер: MKV
Видео кодек: MPEG-4 AVC
Аудио кодек: AC3
Видео: 1280x720, 4713 Кбит/сек, 24,000 кадра/сек
Аудио #1: 256 Кбит/сек, 2 канала, 48,0 КГц (Русский)
Аудио #2: 256 Кбит/сек, 2 канала, 48,0 КГц (Украинский)
Cубтитры: отсутствуют

Media Info

Общее
Уникальный идентификатор                 : 183882100987137483569854049233791914345 (0x8A56678A37EE141BA544854587009169)
Полное имя                               : D:\movies\pirat.ca\HUMAN REVOLUTION - 2014 - WEB-DLRip 720p.mkv
Формат                                   : Matroska
Версия формата                           : Version 2
Размер файла                             : 469 Мбайт
Продолжительность                        : 12 м.
Общий поток                              : 5331 Кбит/сек
Дата кодирования                         : UTC 2015-01-04 19:23:50
Программа кодирования                    : mkvmerge v5.8.0 ('No Sleep / Pillow') built on Sep  2 2012 15:37:04
Библиотека кодирования                   : libebml v1.2.3 + libmatroska v1.3.0
Видео
Идентификатор                            : 1
Формат                                   : AVC
Формат/Информация                        : Advanced Video Codec
Профиль формата                          : [email protected]
Параметр CABAC формата                   : Да
Параметр ReFrames формата                : 8 кадров
Режим смешивания                         : Header stripping
Идентификатор кодека                     : V_MPEG4/ISO/AVC
Продолжительность                        : 12 м.
Битрейт                                  : 4713 Кбит/сек
Ширина                                   : 1280 пикселей
Высота                                   : 720 пикселей
Соотношение сторон                       : 16:9
Режим частоты кадров                     : Постоянный
Частота кадров                           : 24,000 кадра/сек
Цветовое пространство                    : YUV
Субдискретизация насыщенности            : 4:2:0
Битовая глубина                          : 8 бит
Тип развёртки                            : Прогрессивная
Бит/(Пиксели*Кадры)                      : 0.213
Размер потока                            : 414 Мбайт (88%)
Язык                                     : English
Default                                  : Да
Forced                                   : Нет
Аудио #1
Идентификатор                            : 2
Формат                                   : AC-3
Формат/Информация                        : Audio Coding 3
Расширение режима                        : CM (complete main)
Параметр Endianness формата              : Big
Режим смешивания                         : Header stripping
Идентификатор кодека                     : A_AC3
Продолжительность                        : 12 м.
Вид битрейта                             : Постоянный
Битрейт                                  : 256 Кбит/сек
Каналы                                   : 2 канала
Расположение каналов                     : Front: L R
Частота                                  : 48,0 КГц
Битовая глубина                          : 16 бит
Метод сжатия                             : С потерями
Размер потока                            : 22,5 Мбайт (5%)
Язык                                     : Russian
Default                                  : Да
Forced                                   : Нет
Аудио #2
Идентификатор                            : 3
Формат                                   : AC-3
Формат/Информация                        : Audio Coding 3
Расширение режима                        : CM (complete main)
Параметр Endianness формата              : Big
Режим смешивания                         : Header stripping
Идентификатор кодека                     : A_AC3
Продолжительность                        : 12 м.
Вид битрейта                             : Постоянный
Битрейт                                  : 256 Кбит/сек
Каналы                                   : 2 канала
Расположение каналов                     : Front: L R
Частота                                  : 48,0 КГц
Битовая глубина                          : 16 бит
Метод сжатия                             : С потерями
Размер потока                            : 22,5 Мбайт (5%)
Язык                                     : Ukrainian
Default                                  : Нет
Forced                                   : Нет

Скриншоты

Яндекс.Метрика
Рейтинг@Mail.ru