[ Сегодня на трекере фрилич! Идет свободное скачивание без начисления Download ]

Объятия вампира / Embrace of the Vampire (Карл Бессай / Carl Bessai) [2013 г., ужасы, HDRip] MVO (Лицензия)

 

Создавать темы 07-Янв-2015 04:44

-Объятия вампира / Embrace of the Vampire- Производство: Канада
Год выпуска: 2013 г.
Жанр: ужасы
Продолжительность: 01:31:18
Мировая премьера: 15 октября 2013
Перевод: Профессиональный (многоголосый, закадровый) [Лицензия]-Режиссер: Карл Бессай / Carl Bessai
В ролях: Шэрон Хинендэйл Каньехтио Хорн С.С. Шеффилд Челси Рейст Виктор Уэбстер Роберт Молони Райан Кеннеди Киган Коннор Трейси Оливия Ченг Клер Смитис-Описание: В колледж в небольшом городке приезжает учиться Шарлотта, с виду обычная девушка. Но у неё странная болезнь крови. Может, поэтому её мучают видения и странные ночные кошмары, после которых она просыпается не в своей постели, а где-нибудь на улице…- -Качество видео: HDRip
Контейнер: AVI
Видео кодек: XviD
Аудио кодек: AC3
Видео: 720x400 (1.80:1), 23.976 fps, XviD build 50 ~1749 kbps avg, 0.25 bit/pixel
Аудио: 48 kHz, AC3 Dolby Digital, 3/2 (L,C,R,l,r) + LFE ch, ~384 kbps
Cубтитры: отсутствуют

Media Info

General
Complete name : D:\0by4tja.V4mp1ra.2013.P.HDRip.1400MB.avi
Format : AVI
Format/Info : Audio Video Interleave
File size : 1.37 GiB
Duration : 1h 31mn
Overall bit rate : 2 143 Kbps
Writing application : VirtualDubMod 1.5.10.3 | www.virtualdub-fr.org || (build 2550/release)
Writing library : VirtualDubMod build 2550/release
Video
ID : 0
Format : MPEG-4 Visual
Format profile : Advanced [email protected]
Format settings, BVOP : 2
Format settings, QPel : No
Format settings, GMC : No warppoints
Format settings, Matrix : Custom
Codec ID : XVID
Codec ID/Hint : XviD
Duration : 1h 31mn
Bit rate : 1 750 Kbps
Width : 720 pixels
Height : 400 pixels
Display aspect ratio : 16:9
Frame rate : 23.976 fps
Color space : YUV
Chroma subsampling : 4:2:0
Bit depth : 8 bits
Scan type : Progressive
Compression mode : Lossy
Bits/(Pixel*Frame) : 0.253
Stream size : 1.12 GiB (82%)
Writing library : XviD 1.2.1 (UTC 2008-12-04)
Audio
ID : 1
Format : AC-3
Format/Info : Audio Coding 3
Mode extension : CM (complete main)
Format settings, Endianness : Big
Codec ID : 2000
Duration : 1h 31mn
Bit rate mode : Constant
Bit rate : 384 Kbps
Channel(s) : 6 channels
Channel positions : Front: L C R, Side: L R, LFE
Sampling rate : 48.0 KHz
Bit depth : 16 bits
Compression mode : Lossy
Stream size : 251 MiB (18%)
Alignment : Split accross interleaves
Interleave, duration : 42 ms (1.00 video frame)
Interleave, preload duration : 500 ms

Скриншоты

Яндекс.Метрика
Рейтинг@Mail.ru