[ Сегодня на трекере фрилич! Идет свободное скачивание без начисления Download ]

Марьина роща 2 (2014,Детектив)(Евгений Серов) SATRip (Сезон 2, серии 1-17 из 17)

 

Создавать темы 06-Янв-2015 14:04

-Марьина роща-2 (2014)- Год выпуска: 2014
Жанр: Детектив
Режиссер: Евгений Серов
Актеры: Александр Домогаров, Евгения Крюкова, Виктор Тереля, Сергей Комаров (II), Александр Сергеев (IV), Игорь Поселенов, Александр Печенин, Александр Новик, Юлия Рутберг, Дмитрий Горевой, Надежда Иванова, Кирилл Каганович, Татьяна Ткач, Владимир Долинский
Описание фильма:Арест Трошина круто меняет не только его судьбу, но и жизни всех главных героев истории. А за свое освобождение Трошин расплачивается самым дорогим – любовью. Их с Ниной отношения подвергаются серьезнейшим испытаниям, главное из которых – Николай, муж Нины, который, оказывается, жив. Но, несмотря на личные проблемы, Трошин вновь на посту. Он, по-прежнему, участковый в Марьиной Роще, обстановка в которой постепенно накаляется.

Премьера в России: 17 ноября 2014
Продолжительность: ~00:44:00 серия
Качество видео: SATRip
Формат: AVI
Видео кодек: XviD
Битрейт видео: ~1800 kbps
Размер кадра: 720x400 (16:9)
Аудио: AC-3, 48 kHz, 2 ch, ~192 kbps

MediaInfo:

Общее
Полное имя : D:\Марьина роща 2\Maryina.Rosha-2.01.SATRip..avi
Формат : AVI
Формат/Информация : Audio Video Interleave
Размер файла : 608 Мбайт
Продолжительность : 42 м.
Общий поток : 2002 Кбит/сек
Программа кодирования : VirtualDubMod 1.5.10.3 | www.virtualdub-fr.org || (build 2550/release)
Библиотека кодирования : VirtualDubMod build 2550/release
Видео
Идентификатор : 0
Формат : MPEG-4 Visual
Профиль формата : Advanced [email protected]
Параметр BVOP формата : 2
Параметр QPel формата : Нет
Параметр GMC формата : Без точки перехода
Параметр матрицы формата : Default (H.263)
Идентификатор кодека : XVID
Идентификатор кодека/Подсказка : XviD
Продолжительность : 42 м.
Битрейт : 1800 Кбит/сек
Ширина : 720 пикселей
Высота : 400 пикселей
Соотношение сторон : 16:9
Частота кадров : 25,000 кадров/сек
Цветовое пространство : YUV
Субдискретизация насыщенности : 4:2:0
Битовая глубина : 8 бит
Тип развёртки : Прогрессивная
Метод сжатия : С потерями
Бит/(Пиксели*Кадры) : 0.250
Размер потока : 547 Мбайт (90%)
Библиотека кодирования : XviD 1.2.1 (UTC 2008-12-04)
Аудио
Идентификатор : 1
Формат : AC-3
Формат/Информация : Audio Coding 3
Расширение режима : CM (complete main)
Параметр Endianness формата : Big
Идентификатор кодека : 2000
Продолжительность : 42 м.
Вид битрейта : Постоянный
Битрейт : 192 Кбит/сек
Каналы : 2 канала
Расположение каналов : Front: L R
Частота : 48,0 КГц
Битовая глубина : 16 бит
Метод сжатия : С потерями
Размер потока : 58,3 Мбайт (10%)
Выравнивание : Разделение по промежуткам
Продолжительность промежутка : 40 мс. (1,00 видеокадр)
Время предзагрузки промежутка : 500 мс.
Скриншоты:
Яндекс.Метрика
Рейтинг@Mail.ru