[ Сегодня на трекере фрилич! Идет свободное скачивание без начисления Download ]

Идеальная пара (2014) HDTVRip

 

Создавать темы 06-Янв-2015 11:38

-Идеальная пара (2014) HDTVRip- Производство: Россия, Киностудия Маркес
Жанр: Мелодрама
Перевод: Не требуется
Субтитры: Отсутствуют
Дата российской премьеры: 2 января 2015
Режиссер: Ольга Доброва-Куликова
Актеры: Анна Уколова, Андрей Чадов, Ирина Знаменщикова, Александр Никольский (II), Мария Дорогова, Виктор Маркин (II), Ксения Щербакова, Екатерина Варкова
Описание фильма:
Зоя – спортсменка с мужским характером. Поэтому сильному полу с ней тяжело, и они от нее сбегают. Но Зоя мечтает выйти замуж и завести детей.
Кеша – холостяк, живет с родителями. Однажды он уходит из дома с намерением жениться на первой встречной. Ей оказывается Зоя, которая решает, что сможет сделать из Кеши идеального мужа. Он предлагает Зое переделать друг друга: день она, день он. Кеша, наконец, находит женщину своей мечты, которая его понимает. А Зоя встречает отличного парня. Однако скоро обнаруживается, что "переделка" не прошла даром...
Продолжительность: 01:29:38
Качество видео: HDTVRip
Видеокодек: Xvid
Битрейт видео: ~1983 Кбит/с
Размер кадра: 720x400
Аудиокодек: AC3 2.0
Битрейт аудио: 2 ch, 192 Кбит/с
Сэмпл: Скачать

Mediainfo:

General
Complete name : \Idealnaya.para.2014.HDTVRip.avi
Format : AVI
Format/Info : Audio Video Interleave
File size : 1.37 GiB
Duration : 1h 29mn
Overall bit rate : 2 186 Kbps
Writing application : VirtualDubModRus 1.5.10.2 (build 2542/release)
Writing library : VirtualDubMod build 2542/release
Video
ID : 0
Format : MPEG-4 Visual
Format profile : Advanced [email protected]
Format settings, BVOP : 1
Format settings, QPel : No
Format settings, GMC : No warppoints
Format settings, Matrix : Custom
Codec ID : XVID
Codec ID/Hint : XviD
Duration : 1h 29mn
Bit rate : 1 984 Kbps
Width : 720 pixels
Height : 400 pixels
Display aspect ratio : 16:9
Frame rate : 25.000 fps
Color space : YUV
Chroma subsampling : 4:2:0
Bit depth : 8 bits
Scan type : Progressive
Compression mode : Lossy
Bits/(Pixel*Frame) : 0.276
Stream size : 1.24 GiB (91%)
Writing library : XviD 73
Audio
ID : 1
Format : AC-3
Format/Info : Audio Coding 3
Mode extension : CM (complete main)
Codec ID : 2000
Duration : 1h 29mn
Bit rate mode : Constant
Bit rate : 192 Kbps
Channel(s) : 2 channels
Channel positions : Front: L R
Sampling rate : 48.0 KHz
Bit depth : 16 bits
Compression mode : Lossy
Stream size : 123 MiB (9%)
Alignment : Split accross interleaves
Interleave, duration : 40 ms (1.00 video frame)
Interleave, preload duration : 500 ms
Скриншоты:
-
Время раздачи: 24/7 до 5-ти скачавших
Яндекс.Метрика
Рейтинг@Mail.ru