Крепкий брак (2012) HDTV [1080i]

 

Создавать темы 06-Янв-2015 11:26

-Крепкий брак (2012) HDTV [1080i]- Страна: Россия
Производство: Россия / кинокомпания «Амедиа»
Жанр: Мелодрама, комедия
Режиссер: Леонид Мазор
В ролях: Камиль Ларин, Юлия Меньшова, Андрей Межулис, Наталья Ноздрина, Максим Туранцев, Яна Аносова, Анна Скиданова
Описание фильма:
Выдав замуж свою 20-летнюю дочь, супруги Алексей и Марина вдруг понимают, что в жизненном реестре поставлена последняя галочка: квартира есть, бизнес функционирует, чадо пристроено. Казалось бы, можно уже пожить для себя, но тут муж и жена ссорятся, а потом заключают пари: тот, кто первым будет пойман на адюльтере или попросится назад, в семью, теряет и бизнес, и квартиру. В начавшейся войне в ход идет все – даже инструкция по соблазнению собственного мужа, которую супруга коварно отдает секретарше своего благоверного. Сможет ли муж сопротивляться подобной атаке?

Дата российской премьеры: 25 ноября 2012
Продолжительность: 01:29:24
Качество видео: HDTV [1080i]
Формат файла: MPEG-TS
Видеокодек: MPEG-4 AVC
Битрейт видео: ~ 8397 kbps avg
Размер кадра: 1920x1080, 25 fps
Аудиокодек: МР2, 2 ch
Битрейт аудио: 256 kbps

Благодарности:

Большое СПАСИБО человеку под ником Nikolspup за предоставление исходника

MediaInfo:

Общее
Идентификатор : 1 (0x1)
Полное имя : F:\Фильмы торренты\Krepkiy.brak.2012.HDTV.ts
Формат : MPEG-TS
Размер файла : 5,24 Гбайт
Продолжительность : 1 ч. 29 м.
Режим общего битрейта : Переменный
Общий поток : 8397 Кбит/сек
Видео
Идентификатор : 2911 (0xB5F)
Идентификатор меню : 1 (0x1)
Формат : AVC
Формат/Информация : Advanced Video Codec
Профиль формата : [url=mailto:[email protected]][email protected][/url]
Параметр CABAC формата : Да
Параметр ReFrames формата : 4 кадра
Идентификатор кодека : 27
Продолжительность : 1 ч. 29 м.
Битрейт : 7724 Кбит/сек
Ширина : 1920 пикселей
Высота : 1080 пикселей
Соотношение сторон : 16:9
Частота кадров : 25,000 кадров/сек
Цветовое пространство : YUV
Субдискретизация насыщенности : 4:2:0
Битовая глубина : 8 бит
Тип развёртки : MBAFF
Бит/(Пиксели*Кадры) : 0.149
Размер потока : 4,82 Гбайт (92%)
Аудио
Идентификатор : 2912 (0xB60)
Идентификатор меню : 1 (0x1)
Формат : MPEG Audio
Версия формата : Version 1
Профиль формата : Layer 2
Идентификатор кодека : 3
Продолжительность : 1 ч. 29 м.
Вид битрейта : Постоянный
Битрейт : 256 Кбит/сек
Каналы : 2 канала
Частота : 48,0 КГц
Метод сжатия : С потерями
Размер потока : 164 Мбайт (3%)
Язык : Russian
Скриншоты:

-
-Время раздачи: 24/7 до первых 5 скачавших.
Яндекс.Метрика
Рейтинг@Mail.ru