Обратный билет (2012) HDTVRip [H.264/1080p-LQ]

 

Создавать темы 06-Янв-2015 11:22

-Обратный билет (2012) HDTVRip [H.264/1080p-LQ]- Год выпуска: 2012
Производство: Россия/"Беркана", "Кинослово"
Жанр: Мелодрама
Перевод: Не требуется (русский)
Субтитры: Отсутствуют
Описание фильма:
Мария возвращается в город, где живет ее семья, ее друзья — те, кого она любит больше жизни, те, с которыми она была разлучена на долгие шесть лет. Мария была осуждена за убийство. Маленький городок, где все знают друг друга, до сих пор в недоумении: как молодая женщина могла убить своего мужа? Только сама Мария знает правду и цену этого трагического события из прошлого. Долгожданное возвращение домой становится для нее настоящим испытанием.
Режиссер: Александр Кананович
Актеры: Елена Подкаминская, Андрей Биланов, Константин Константинов, Ольга Гагарина, Нелли Неведина, Катя Подлесная, Дианисий Толоконников, Ольга Мукукенова, Максим Важов, Олег Масленников и др.
Продолжительность: 01:29:30
Качество видео: HDTVRip [H.264/1080p-LQ]

Видеокодек: MPEG-4 AVC/H.264
Битрейт видео: 6432 кбит/с
Размер кадра: 1920х1080
Аудиокодек: AC3 2.0
Битрейт аудио: 384 кбит/с

Mediainfo:

Общее
Уникальный идентификатор                 : 168348648403719580577546155723716462494 (0x7EA6C532C2870C1E037BA147C20E879E)
Полное имя                               : E:\Закачки\Обратный билет.mkv
Формат                                   : Matroska
Версия формата                           : Version 2
Размер файла                             : 4,35 Гбайт
Продолжительность                        : 1 ч. 29 м.
Режим общего битрейта                    : Переменный
Общий поток                              : 6954 Кбит/сек
Программа кодирования                    : Lavf51.12.1
Библиотека кодирования                   : Lavf51.12.1
Видео
Идентификатор                            : 1
Формат                                   : AVC
Формат/Информация                        : Advanced Video Codec
Профиль формата                          : [url=mailto:[email protected]][email protected][/url]
Параметр CABAC формата                   : Нет
Параметр ReFrames формата                : 1 кадр
Параметр GOP формата                     : M=1, N=12
Идентификатор кодека                     : V_MPEG4/ISO/AVC
Продолжительность                        : 1 ч. 29 м.
Вид битрейта                             : Переменный
Битрейт                                  : 6432 Кбит/сек
Максимальный битрейт                     : 9450 Кбит/сек
Ширина                                   : 1920 пикселей
Высота                                   : 1080 пикселей
Соотношение сторон                       : 16:9
Режим частоты кадров                     : Постоянный
Частота кадров                           : 25,000 кадров/сек
Частота кадров в оригинале               : 24,000 кадра/сек
Цветовое пространство                    : YUV
Субдискретизация насыщенности            : 4:2:0
Битовая глубина                          : 8 бит
Тип развёртки                            : Прогрессивная
Бит/(Пиксели*Кадры)                      : 0.124
Размер потока                            : 4,02 Гбайт (92%)
Default                                  : Да
Forced                                   : Нет
Аудио
Идентификатор                            : 2
Формат                                   : AC-3
Формат/Информация                        : Audio Coding 3
Расширение режима                        : CM (complete main)
Параметр Endianness формата              : Big
Идентификатор кодека                     : A_AC3
Продолжительность                        : 1 ч. 29 м.
Вид битрейта                             : Постоянный
Битрейт                                  : 384 Кбит/сек
Каналы                                   : 2 канала
Расположение каналов                     : Front: L R
Частота                                  : 48,0 КГц
Битовая глубина                          : 16 бит
Метод сжатия                             : С потерями
Размер потока                            : 246 Мбайт (6%)
Default                                  : Да
Forced                                   : Нет
Скриншоты:-Пожалуйста, не уходите с раздачи - помогите докачать другим.
-
Время раздачи: 24/7
Яндекс.Метрика
Рейтинг@Mail.ru