[ Сегодня на трекере фрилич! Идет свободное скачивание без начисления Download ]

Роман с камнем / Romancing The Stone (Роберт Земекис / Robert Zemeckis) [1984 г., Боевик, мелодрама, комедия, приключения, BDRip-AVC] AVO (Гаврилов, Горчаков, Володарский, Мишин) + DVO + Original (Eng)

 

Создавать темы 06-Янв-2015 06:52

Роман с камнем / Romancing The Stone
Год выпуска: 1984
Производство: Мексика, США
Жанр: Боевик, мелодрама, комедия, приключения
Продолжительность: 01:45:46
Перевод: Авторский (одноголосый, закадровый) А.Гаврилов, В.Горчаков, Л.Володарский, А.Мишин
Перевод: Профессиональный (двухголосый, закадровый) DVO
Оригинальный аудиопоток: английский
Субтитры: отсутствуют
Режиссер: Роберт Земекис / Robert Zemeckis
В ролях: Майкл Дуглас, Кэтлин Тернер, Дэнни ДеВито, Зак Норман, Альфонсо Арау, Мануэль Ойеда, Холлэнд Тейлор, Мэри Эллен Трэйнор, Ив Смит, Джо Несноу
Описание: Джоан Уайлдер, автор популярных женских романов, находит в своем почтовом ящике пакет, присланный из Колумбии ее сестрой. Телефонный звонок подтверждает самые страшные опасения — сестра похищена, и похитители требуют вернуть пакет.
Забыв обо всем на свете, Джоан летит на помощь сестре и теряется в первые часы после прилета. Ее пытаются убить, и только вмешательство Джека Колтона, американского наемника, спасет девушку от гибели.
Вместе их ждут экстремальные приключения в джунглях, поиск сокровищ и, конечно, романтическая любовная история.
, КиноПоиск
Качество видео: BDRip-AVC
Контейнер: MKV
Видео кодек: H.264
Аудио кодек: AC3
Видео: 1044x440, 23.976 fps, 2814 Kbps, 0.256 Bt/Px
Аудио : AC-3, 192 Kbps, 2 ch, 48.0 KHz Rus Гаврилов
Аудио : AC-3, 192 Kbps, 2 ch, 48.0 KHz Rus Горчаков
Аудио : AC-3, 192 Kbps, 2 ch, 48.0 KHz Rus Володарский
Аудио : AC-3, 192 Kbps, 2 ch, 48.0 KHz Rus Мишин
Аудио : AC-3, 192 Kbps, 2 ch, 48.0 KHz Rus DVO
Аудио : AC-3, 192 Kbps, 2 ch, 48.0 KHz Eng Original

Media Info

G:\загрузки\Romancing_the_Stone_[Pirat.ca].torrent.mkv
General
Unique ID : 209951540801332579643985238081654350822 (0x9DF332287722441E817A1BA85C3DE3E6)
Complete name : G:\загрузки\Romancing_the_Stone_[Pirat.ca].torrent.mkv
Format : Matroska
Format version : Version 1
File size : 2.99 GiB
Duration : 1h 45mn
Overall bit rate : 4 047 Kbps
Encoded date : UTC 2015-01-05 08:34:05
Writing application : mkvmerge v2.5.3 ('Boogie') built on Mar 7 2009 15:00:41
Writing library : libebml v0.7.7 + libmatroska v0.8.1
Video #1
ID : 1
Format : AVC
Format/Info : Advanced Video Codec
Format profile : [email protected]
Format settings, CABAC : Yes
Format settings, ReFrames : 12 frames
Codec ID : V_MPEG4/ISO/AVC
Duration : 1h 45mn
Bit rate : 2 814 Kbps
Width : 1 044 pixels
Height : 440 pixels
Display aspect ratio : 2.40:1
Frame rate mode : Constant
Frame rate : 23.976 fps
Color space : YUV
Chroma subsampling : 4:2:0
Bit depth : 8 bits
Scan type : Progressive
Bits/(Pixel*Frame) : 0.256
Stream size : 2.08 GiB (70%)
Writing library : x264 core 130 r2273 b3065e6
Encoding settings : cabac=1 / ref=12 / deblock=1:-3:-3 / analyse=0x3:0x133 / me=umh / subme=11 / psy=1 / psy_rd=1.00:0.10 / mixed_ref=1 / me_range=32 / chroma_me=1 / trellis=2 / 8x8dct=1 / cqm=0 / deadzone=21,11 / fast_pskip=1 / chroma_qp_offset=-3 / threads=6 / lookahead_threads=1 / sliced_threads=0 / nr=0 / decimate=1 / interlaced=0 / bluray_compat=0 / constrained_intra=0 / bframes=8 / b_pyramid=2 / b_adapt=2 / b_bias=0 / direct=1 / weightb=1 / open_gop=0 / weightp=2 / keyint=250 / keyint_min=23 / scenecut=40 / intra_refresh=0 / rc_lookahead=50 / rc=crf / mbtree=1 / crf=18.0 / qcomp=0.60 / qpmin=0 / qpmax=51 / qpstep=4 / ip_ratio=1.40 / aq=1:1.00
Language : English
Default : Yes
Forced : No
Audio #2
ID : 2
Format : AC-3
Format/Info : Audio Coding 3
Mode extension : CM (complete main)
Format settings, Endianness : Big
Codec ID : A_AC3
Duration : 1h 45mn
Bit rate mode : Constant
Bit rate : 192 Kbps
Channel(s) : 2 channels
Channel positions : Front: L R
Sampling rate : 48.0 KHz
Bit depth : 16 bits
Compression mode : Lossy
Stream size : 145 MiB (5%)
Title : AVO Гаврилов
Language : Russian
Default : Yes
Forced : No
Audio #3
ID : 3
Format : AC-3
Format/Info : Audio Coding 3
Mode extension : CM (complete main)
Format settings, Endianness : Big
Codec ID : A_AC3
Duration : 1h 45mn
Bit rate mode : Constant
Bit rate : 192 Kbps
Channel(s) : 2 channels
Channel positions : Front: L R
Sampling rate : 48.0 KHz
Bit depth : 16 bits
Compression mode : Lossy
Stream size : 145 MiB (5%)
Title : AVO Горчаков
Language : Russian
Default : No
Forced : No
Audio #4
ID : 4
Format : AC-3
Format/Info : Audio Coding 3
Mode extension : CM (complete main)
Format settings, Endianness : Big
Codec ID : A_AC3
Duration : 1h 45mn
Bit rate mode : Constant
Bit rate : 192 Kbps
Channel(s) : 2 channels
Channel positions : Front: L R
Sampling rate : 48.0 KHz
Bit depth : 16 bits
Compression mode : Lossy
Stream size : 145 MiB (5%)
Title : AVO Володарский
Language : Russian
Default : No
Forced : No
Audio #5
ID : 5
Format : AC-3
Format/Info : Audio Coding 3
Mode extension : CM (complete main)
Format settings, Endianness : Big
Codec ID : A_AC3
Duration : 1h 45mn
Bit rate mode : Constant
Bit rate : 192 Kbps
Channel(s) : 2 channels
Channel positions : Front: L R
Sampling rate : 48.0 KHz
Bit depth : 16 bits
Compression mode : Lossy
Stream size : 145 MiB (5%)
Title : AVO Мишин
Language : Russian
Default : No
Forced : No
Audio #6
ID : 6
Format : AC-3
Format/Info : Audio Coding 3
Mode extension : CM (complete main)
Format settings, Endianness : Big
Codec ID : A_AC3
Duration : 1h 45mn
Bit rate mode : Constant
Bit rate : 192 Kbps
Channel(s) : 2 channels
Channel positions : Front: L R
Sampling rate : 48.0 KHz
Bit depth : 16 bits
Compression mode : Lossy
Stream size : 145 MiB (5%)
Title : DVO
Language : Russian
Default : No
Forced : No
Audio #7
ID : 7
Format : AC-3
Format/Info : Audio Coding 3
Mode extension : CM (complete main)
Format settings, Endianness : Big
Codec ID : A_AC3
Duration : 1h 45mn
Bit rate mode : Constant
Bit rate : 192 Kbps
Channel(s) : 2 channels
Channel positions : Front: L R
Sampling rate : 48.0 KHz
Bit depth : 16 bits
Compression mode : Lossy
Stream size : 145 MiB (5%)
Language : English
Default : No
Forced : No

log x.264

x264 [info]: frame I:1286  Avg QP:15.68  size:104986
x264 [info]: frame P:30561 Avg QP:19.13 size: 31613
x264 [info]: frame B:120313 Avg QP:22.12 size: 9902
x264 [info]: consecutive B-frames: 1.4% 1.1% 4.0% 22.7% 19.3% 39.0% 6.4% 4.4% 1.7%
x264 [info]: mb I I16..4: 4.1% 72.3% 23.6%
x264 [info]: mb P I16..4: 0.3% 10.7% 1.8% P16..4: 30.0% 36.6% 15.8% 2.6% 0.4% skip: 1.8%
x264 [info]: mb B I16..4: 0.0% 1.7% 0.3% B16..8: 38.2% 21.9% 4.1% direct: 5.9% skip:27.8% L0:45.1% L1:42.2% BI:12.7%
x264 [info]: 8x8 transform intra:82.2% inter:62.9%
x264 [info]: coded y,uvDC,uvAC intra: 94.2% 92.2% 69.9% inter: 34.8% 28.8% 6.3%
x264 [info]: i16 v,h,dc,p: 17% 17% 13% 52%
x264 [info]: i8 v,h,dc,ddl,ddr,vr,hd,vl,hu: 12% 10% 6% 9% 14% 13% 13% 11% 13%
x264 [info]: i4 v,h,dc,ddl,ddr,vr,hd,vl,hu: 10% 20% 4% 7% 13% 12% 13% 9% 12%
x264 [info]: i8c dc,h,v,p: 43% 22% 17% 18%
x264 [info]: Weighted P-Frames: Y:11.4% UV:4.7%
x264 [info]: ref P L0: 37.9% 12.4% 17.3% 6.8% 6.3% 4.3% 4.3% 2.3% 2.4% 1.9% 2.0% 1.7% 0.3% 0.0%
x264 [info]: ref B L0: 67.5% 12.4% 6.5% 3.6% 2.7% 2.3% 1.9% 1.2% 1.0% 0.7% 0.3%
x264 [info]: ref B L1: 91.6% 8.4%
x264 [info]: kb/s:2889.90
x264 [total]: encoded 152160 frames, 5.48 fps, 2889.91 kb/s

Скриншоты

Яндекс.Метрика
Рейтинг@Mail.ru