Чудо животного мира / The Wonder of Animals (Сезон: 1 / Серии: 1-6 из 12) (BBC, Крис Пакэм / Chris Packham, Аарон Пол / Aaron Paul, Jonny Keeling) [2014 г., Документальный, природа, фауна, HDTV, 720p] VO [обновляемая]

 

Создавать темы 06-Янв-2015 06:39

Чудо животного мира / The Wonder of Animals
-Производство: Великобритания, BBC
Жанр: Документальный, природа, фауна
Год выпуска: 2014 г.
Продолжительность: 6 серий по ~ 00:29:00
Перевод: Профессиональный (одноголосый, закадровый), Владимир Курдов-Режиссер: ВВС, Крис Пакэм / Chris Packham, Аарон Пол / Aaron Paul, Jonny Keeling-В ролях: Крис Пакэм / Chris Packham и звери-Описание: Как они устроены? Почему выживают там, где не смог бы выжить ни один другой вид животных? Что позволяет становиться им лидерами в своем ареале? Крис Пакэм задался этим вопросом и с помощью научно-исследовательских методов взялся за изучение анатомии, физиологии и поведения животных, чтобы выяснить, как конкретно все вышеперечисленное помогает им существовать в мире беспощадной природы. С помощью чего муравьи так слаженно работают, а хищники охотятся? Крис как-будто становится на место зверя, чтобы это выяснить. Удивительно красочная серия фильмов перенесет зрителя в обычно скрытый мир флоры и фауны, и раскроет много тайн и секретов.
1. Пингвины (Penguins)
2. Медведи (Bears)
3. Большие Кошки (Big Cats)
4. Муравьи (Ants)
5. Лисицы (Foxes)
6. Слоны (Elephants)-Качество видео: HDTV
Контейнер: MKV
Стандарт разрешения: 720p
Видео кодек: H.264
Аудио кодек: AC3
Видео: 3168 Кбит/сек; 1280*720 (16:9); в 25,000 кадра/сек; AVC; 0.137 Бит/(Пиксели*Кадры)
Аудио: Русский; 192 Кбит/сек; 48,0 КГц; 16 бит; 2 канала; АС-3 |Владимир Курдов|
Cубтитры: отсутствуют

Media Info

Общее
Уникальный идентификатор : 207111969779374655012828099402590869304 (0x9BD0507F656F487F87346D26CC345738)
Формат : Matroska
Версия формата : Version 4 / Version 2
Размер файла : 724 Мбайт
Продолжительность : 29 м.
Общий поток : 3428 Кбит/сек
Дата кодирования : UTC 2014-09-09 11:35:13
Программа кодирования : mkvmerge v6.7.0 ('Back to the Ground') 32bit built on Jan 8 2014 15:03:17
Библиотека кодирования : libebml v1.3.0 + libmatroska v1.4.1
Видео
Идентификатор : 1
Формат : AVC
Формат/Информация : Advanced Video Codec
Профиль формата : [email protected]
Параметр CABAC формата : Да
Параметр ReFrames формата : 4 кадра
Идентификатор кодека : V_MPEG4/ISO/AVC
Продолжительность : 29 м.
Битрейт : 3168 Кбит/сек
Ширина : 1280 пикселей
Высота : 720 пикселей
Соотношение сторон : 16:9
Режим частоты кадров : Постоянный
Частота кадров : 25,000 кадров/сек
Цветовое пространство : YUV
Субдискретизация насыщенности : 4:2:0
Битовая глубина : 8 бит
Тип развёртки : Прогрессивная
Бит/(Пиксели*Кадры) : 0.137
Размер потока : 669 Мбайт (92%)
Библиотека кодирования : x264 core 119
Настройки программы : cabac=1 / ref=1 / deblock=1:0:0 / analyse=0x1:0x1 / me=dia / subme=1 / psy=1 / psy_rd=1.00:0.00 / mixed_ref=0 / me_range=16 / chroma_me=1 / trellis=0 / 8x8dct=0 / cqm=0 / deadzone=21,11 / fast_pskip=1 / chroma_qp_offset=0 / threads=4 / sliced_threads=0 / nr=0 / decimate=1 / interlaced=0 / bluray_compat=0 / constrained_intra=0 / bframes=3 / b_pyramid=2 / b_adapt=1 / b_bias=0 / direct=1 / weightb=1 / open_gop=0 / weightp=1 / keyint=250 / keyint_min=25 / scenecut=40 / intra_refresh=0 / rc=crf / mbtree=0 / crf=23.0 / qcomp=0.60 / qpmin=0 / qpmax=69 / qpstep=4 / ip_ratio=1.40 / pb_ratio=1.30 / aq=1:1.00
Default : Да
Forced : Нет
Аудио
Идентификатор : 2
Формат : AC-3
Формат/Информация : Audio Coding 3
Расширение режима : CM (complete main)
Параметр Endianness формата : Big
Идентификатор кодека : A_AC3
Продолжительность : 29 м.
Вид битрейта : Постоянный
Битрейт : 192 Кбит/сек
Каналы : 2 канала
Расположение каналов : Front: L R
Частота : 48,0 КГц
Битовая глубина : 16 бит
Метод сжатия : С потерями
Задержка видео : -40 мс.
Размер потока : 40,6 Мбайт (6%)
Default : Да
Forced : Нет

Скриншоты

Пингвины (Penguins)

Ведущий: Chris Packham
Исполнительный продюсер: Jonny Keeling
Продюсер: Lara Bickerton
Продюсер серии: Aaron Paul
Режиссер: Aaron Paul

Медведи (Bears)

Ведущий: Chris Packham
Исполнительный продюсер: Jonny Keeling
Продюсер: Clare Kingston
Продюсер серии: Aaron Paul
Режиссер: Clare Kingston

Большие Кошки (Big Cats)

Ведущий: Chris Packham
Исполнительный продюсер: Jonny Keeling
Продюсер: Emily Taylor
Продюсер серии: Aaron Paul
Режиссер: Emily Taylor

Муравьи (Ants)

Ведущий: Chris Packham
Исполнительный продюсер: Jonny Keeling
Продюсер: Francis Welch
Продюсер серии: Aaron Paul
Режиссер: Francis Welch

Лисицы (Foxes)

Ведущий: Chris Packham
Исполнительный продюсер: Jonny Keeling
Продюсер: Lara Bickerton
Продюсер серии: Aaron Paul
Режиссер: Lara Bickerton
--

Внимание! Раздача ведётся путём добавления новых серий!

  • Раздача ведётся путём добавления новых серий. При каждом добавлении создётся новый торрент.
  • Чтобы начать докачку новой серии, пользователям необходимо сделать следующее:
    1. остановить скачивание;
    2. удалить старый торрент у себя из клиента (старые серии удалять не надо);
    3. скачать новый торрент и запустить его у себя в клиенте вместо старого, при этом указать клиенту путь в старую папку, куда и должно происходить скачивание новых серий.
  • Ваш клиент при этом должен произвести хеширование (проверку) старой папки (если не производит сам - помогите ему сделать это), и будет докачивать только те серии которых у вас ещё нет. Старые серии при этом не удаляются, а продолжают раздаваться!
  • Eсли вы уже удалили старые серии, то предотвратить повторную закачку старых серий можно, отжав галочку в соответсвующих местах при запуске нового торрента. По возможности, желательно не удалять старые серии как можно дольше, чтобы релизёр не столько продолжал раздавать старые серии, а смог сконцентрироваться на новых.
  • Совет для тех, кто не хочет ждать перехеширования:
    Создайте ещё одну папку рядом с папкой сериала (рядом, а не в ней!!!). Каждую новую серию после удачной загрузки копируйте в новую папку так чтобы ваша основная папка всегда была пуста. Когда ваш новый торрент предложит вам закачать все файлы, выберете только последнюю. Для сидирования же укажите адрес новой папки.

Как закачать отдельный файл

1. Открыть торрент
2. Снять галки с тех файлов торрента, которые мы не хотим закачивать. Оставляем только на нужных нам файлах (файле).
3. Нажать О.К.
В клиенте utorrent
Инструкция
1) Открыть торрент

2) Снять галки с тех файлов торрента, которые мы не хотим закачивать:
* либо вручную, снимая с каждого файла галку (скрин №1)
* либо, нажав кнопку "Снять метки (Select None)", сняв сразу со всех файлов (скрин №2)
№1

№2

Оставляем только на нужных нам файлах (файле).

3)Нажать О.К
Яндекс.Метрика
Рейтинг@Mail.ru