[ Сегодня на трекере фрилич! Идет свободное скачивание без начисления Download ]

Честь и ярость / Rage and Honor (Теренс Х. Уинклесс / Terence H. Winkless) [1992 г., Боевик, драма, криминал, DVDRip-AVC] AVO (Гаврилов, Дольский) + original (Eng)

 

Создавать темы 06-Янв-2015 06:32

Честь и ярость / Rage and Honor
Год выпуска: 1992
Производство: США
Жанр: Боевик, драма, криминал
Продолжительность: 01:32:55
Перевод: Авторский (одноголосый, закадровый) Андрей Гаврилов
Перевод: Авторский (одноголосый, закадровый) Андрей Дольский
Оригинальный аудиопоток: английский
Субтитры: отсутствуют
Режиссер: Теренс Х. Уинклесс / Terence H. Winkless
В ролях: Синтия Ротрок, Ричард Нортон, Терри Триз, Брайан Томпсон, Кэтрин Бах, Стивен Дэвис, Алекс Дэтчер, Патрик Мэлоун, Тоширо Обата, Тим Де Зарн
Описание: В ходе полицейской операции против торговцев наркотиками погибает один из стражей порядка. Через информатора в полиции преступники узнают, что в операции принимал участие полицейский из Австралии Престон, работающий в Лос-Анджелесе под прикрытием.
Дело обставляется так, чтобы взвалить вину за убийство на него. Однако случайный свидетель заснял все на видеокамеру. О кассете узнают обе противоборствующие стороны и парню приходится обратиться за помощью к своему учителю восточных единоборств Крис.
Выясняется, что у нее есть и личные причины ненавидеть главаря наркомафии — он когда-то убил ее сенсея. Кассета все-таки попадает в руки мафии и ее используют в качестве приманки для австралийского агента и бесстрашной каратистки.
, КиноПоиск
Качество видео: DVDRip-AVC
Контейнер: MKV
Видео кодек: H.264
Аудио кодек: AC3
Видео: 640x480, 23.976fps, 1856 Kbps, 0.252 bt/px
Аудио : AC-3, 192 Kbps, 2 ch, 48.0 KHz Rus Гаврилов
Аудио : AC-3, 192 Kbps, 2 ch, 48.0 KHz Rus Дольский
Аудио : AC-3, 192 Kbps, 2 ch, 48.0 KHz Eng Original

Media Info

H:\КИНОФИЛЬМЫ\RAGE AND HONOR(ЧЕСТЬ И ЯРОСТЬ).mkv
General
Unique ID : 200866573870734423369608198427067649399 (0x971D7EB4AD4E156187FC5E1BADD58D77)
Complete name : H:\КИНОФИЛЬМЫ\RAGE AND HONOR(ЧЕСТЬ И ЯРОСТЬ).mkv
Format : Matroska
Format version : Version 1
File size : 1.61 GiB
Duration : 1h 32mn
Overall bit rate : 2 482 Kbps
Encoded date : UTC 2015-01-03 23:32:22
Writing application : mkvmerge v2.5.3 ('Boogie') built on Mar 7 2009 15:00:41
Writing library : libebml v0.7.7 + libmatroska v0.8.1
Video #1
ID : 1
Format : AVC
Format/Info : Advanced Video Codec
Format profile : [email protected]
Format settings, CABAC : Yes
Format settings, ReFrames : 9 frames
Codec ID : V_MPEG4/ISO/AVC
Duration : 1h 32mn
Bit rate : 1 856 Kbps
Width : 640 pixels
Height : 480 pixels
Display aspect ratio : 4:3
Frame rate mode : Constant
Frame rate : 23.976 fps
Color space : YUV
Chroma subsampling : 4:2:0
Bit depth : 8 bits
Scan type : Progressive
Bits/(Pixel*Frame) : 0.252
Stream size : 1.20 GiB (75%)
Writing library : x264 core 130 r2273 b3065e6
Encoding settings : cabac=1 / ref=9 / deblock=1:-1:-1 / analyse=0x3:0x133 / me=umh / subme=11 / psy=1 / psy_rd=1.00:0.15 / mixed_ref=1 / me_range=24 / chroma_me=1 / trellis=2 / 8x8dct=1 / cqm=0 / deadzone=21,11 / fast_pskip=1 / chroma_qp_offset=-3 / threads=6 / lookahead_threads=1 / sliced_threads=0 / nr=0 / decimate=1 / interlaced=0 / bluray_compat=0 / constrained_intra=0 / bframes=8 / b_pyramid=2 / b_adapt=2 / b_bias=0 / direct=1 / weightb=1 / open_gop=0 / weightp=2 / keyint=250 / keyint_min=23 / scenecut=40 / intra_refresh=0 / rc_lookahead=50 / rc=crf / mbtree=1 / crf=17.5 / qcomp=0.60 / qpmin=0 / qpmax=51 / qpstep=4 / ip_ratio=1.40 / aq=1:1.00
Default : Yes
Forced : No
Audio #2
ID : 2
Format : AC-3
Format/Info : Audio Coding 3
Mode extension : CM (complete main)
Format settings, Endianness : Big
Codec ID : A_AC3
Duration : 1h 32mn
Bit rate mode : Constant
Bit rate : 192 Kbps
Channel(s) : 2 channels
Channel positions : Front: L R
Sampling rate : 48.0 KHz
Bit depth : 16 bits
Compression mode : Lossy
Stream size : 128 MiB (8%)
Title : AVO Гаврилов
Language : Russian
Default : Yes
Forced : No
Audio #3
ID : 3
Format : AC-3
Format/Info : Audio Coding 3
Format profile : Dolby Digital
Mode extension : CM (complete main)
Format settings, Endianness : Big
Codec ID : A_AC3
Duration : 1h 32mn
Bit rate mode : Constant
Bit rate : 192 Kbps
Channel(s) : 2 channels
Channel positions : Front: L R
Sampling rate : 48.0 KHz
Bit depth : 16 bits
Compression mode : Lossy
Stream size : 128 MiB (8%)
Title : AVO Дольский
Language : Russian
Default : No
Forced : No
Audio #4
ID : 4
Format : AC-3
Format/Info : Audio Coding 3
Format profile : Dolby Digital
Mode extension : CM (complete main)
Format settings, Endianness : Big
Codec ID : A_AC3
Duration : 1h 32mn
Bit rate mode : Constant
Bit rate : 192 Kbps
Channel(s) : 2 channels
Channel positions : Front: L R
Sampling rate : 48.0 KHz
Bit depth : 16 bits
Compression mode : Lossy
Stream size : 128 MiB (8%)
Language : English
Default : No
Forced : No

Скриншоты

Яндекс.Метрика
Рейтинг@Mail.ru