Мушкетеры / The Musketeers / Сезон: 2 / Серии: 1 из 10 (Фэррен Блэкберн / Farren Blackburn ...) [2014 г., драма, HDTVRip] MVO (BaibaKo) + Original (Eng) [обновляемая]

 

Создавать темы 06-Янв-2015 06:25

Мушкетеры / The Musketeers- Русское название: Мушкетеры
Оригинальное название: The Musketeers
Страна: Великобритания
Год выпуска: 2014
Жанр: драма-Релиз:
Перевод: Профессиональный (многоголосый, закадровый)
Оригинальный аудиопоток: английский-Автор перевода:: Янина Галицкая
Озвучка: Ольга Мотрич, Светлана Доманова, Сергей Корчак, Андрей Корзаченко и Акмал Гурезов
Монтаж: Павел Дежин
Обложка: Антон Максимов-Премьера (мир): 19 января 2014-Режиссер: Фэррен Блэкберн / Farren Blackburn, Ричард Кларк / Richard Clark, Энди Хэй / Andy Hay, ...
В главных ролях: Люк Паскуалино, Том Бёрк, Ховард Чарльз, Сантьяго Кабрера, Александра Доулинг, Райан Гейдж, Мэйми МакКой, Хьюго Спир, Шарлотта Хоуп, Джулиан Бастида, Эмили Бичем, Филип Броди, Кевин Кларк, Джей Джей Филд, Тамла Кари, Эбигейл Райс, Джеймс Кэллис, Шон Сернов, Фиона Глэскотт, Джим Хай, Энтон Лессер, Саймон Микок, Стюарт Мур, Анна Скеллерн, Эшли Уолтерс, Власта Сваткова ...-Описание фильма:
Мушкетеры собираются на улицах Парижа в семнадцатом веке, где закон и порядок являются больше идеей, чем реальностью. Личные телохранители короля Людовика XIII, Атос, Арамис и Портос решительно стоят за социальную справедливость, за честь, за доблесть, так же за любовь — и за острые ощущения.-Сезон: 2
Серии: 1 из 10 серий
Продолжительность: ~ 00:58:00 мин серия-Качество видео: HDTVRip
Формат: AVI
Видеокодек: XviD
Аудиокодек: Mp3
Видео: MPEG-4 Visual at 1500 Кбит/сек: 720 x 400 (1.800) at 25.000 fps, 0.21 Бит/Пиксели
Аудио Rus: MPEG Audio at 192 Кбит/сек: 2 канала, 48,0 КГц |BaibaKo|
Аудио Eng: MPEG Audio at 192 Кбит/сек: 2 канала, 48,0 КГц |Original|
- -

Список серий:

  • Держите своих друзей близко (Keep Your Friends Close)
-

MediaInfo:

Общее
Полное имя : E:\_Сериалы\_Сериалы\Мушкетеры\The Musketeers.s02.BaibaKo\The.Musketeers.s02e01.HDTVRip.XviD.Rus.Eng.BaibaKo.tv.avi
Формат : AVI
Формат/Информация : Audio Video Interleave
Размер файла : 796 Мбайт
Продолжительность : 58 м.
Общий поток : 1898 Кбит/сек
Программа кодирования : VirtualDubMod 1.5.10.2 (build 2540/release)
Библиотека кодирования : VirtualDubMod build 2540/release
Видео
Идентификатор : 0
Формат : MPEG-4 Visual
Профиль формата : Advanced [email protected]
Параметр BVOP формата : 2
Параметр QPel формата : Нет
Параметр GMC формата : Без точки перехода
Параметр матрицы формата : Default (H.263)
Идентификатор кодека : XVID
Идентификатор кодека/Подсказка : XviD
Продолжительность : 58 м.
Битрейт : 1500 Кбит/сек
Ширина : 720 пикселей
Высота : 400 пикселей
Соотношение сторон : 16:9
Частота кадров : 25,000 кадров/сек
Цветовое пространство : YUV
Субдискретизация насыщенности : 4:2:0
Битовая глубина : 8 бит
Тип развёртки : Прогрессивная
Метод сжатия : С потерями
Бит/(Пиксели*Кадры) : 0.208
Размер потока : 629 Мбайт (79%)
Библиотека кодирования : XviD 1.2.1 (UTC 2008-12-04)
Аудио #1
Идентификатор : 1
Формат : MPEG Audio
Версия формата : Version 1
Профиль формата : Layer 3
Режим : Joint stereo
Расширение режима : MS Stereo
Идентификатор кодека : 55
Идентификатор кодека/Подсказка : MP3
Продолжительность : 58 м.
Вид битрейта : Постоянный
Битрейт : 192 Кбит/сек
Каналы : 2 канала
Частота : 48,0 КГц
Метод сжатия : С потерями
Размер потока : 80,5 Мбайт (10%)
Выравнивание : Соединение по промежуткам
Продолжительность промежутка : 40 мс. (1,00 видеокадр)
Время предзагрузки промежутка : 504 мс.
Аудио #2
Идентификатор : 2
Формат : MPEG Audio
Версия формата : Version 1
Профиль формата : Layer 3
Режим : Joint stereo
Расширение режима : MS Stereo
Идентификатор кодека : 55
Идентификатор кодека/Подсказка : MP3
Продолжительность : 58 м.
Вид битрейта : Постоянный
Битрейт : 192 Кбит/сек
Каналы : 2 канала
Частота : 48,0 КГц
Метод сжатия : С потерями
Размер потока : 80,5 Мбайт (10%)
Выравнивание : Соединение по промежуткам
Продолжительность промежутка : 40 мс. (1,00 видеокадр)
Время предзагрузки промежутка : 504 мс.
-

Скриншот c названием фильма

-Скриншоты:
-

Еще

-

Внимание! Раздача ведётся путём добавления новых серий!

Раздача ведётся путём добавления новых серий; при каждом добавлении создаётся новый торрент.
Чтобы начать докачку новой серии, пользователям необходимо сделать следующее:
1. остановить скачивание,
2. удалить старый торрент у себя из клиента (старые серии удалять не надо),
3. скачать новый торрент и запустить его у себя в клиенте вместо старого, при этом указать клиенту путь в старую папку, куда и должно происходить скачивание новых серий.
Ваш клиент при этом должен произвести хеширование (проверку) старой папки (если не производит сам - помогите ему сделать это), и будет докачивать только те серии которых у вас ещё нет. Старые серии при этом не удаляются, а продолжают раздаваться!
Eсли вы уже удалили старые серии, то предотвратить повторную закачку старых серий можно, отжав галочку в соответствующих местах при запуске нового торрента. По возможности, желательно не удалять старые серии как можно дольше, чтобы релизёр не столько продолжал раздавать старые серии, а смог сконцентрироваться на новых.
Совет для тех, кто не хочет ждать перехеширования:
Создайте ещё одну папку рядом с папкой сериала (рядом, а не в ней!!!). Каждую новую серию после удачной загрузки копируйте в новую папку так чтобы ваша основная папка всегда была пуста. Когда ваш новый торрент предложит вам закачать все файлы, выберете только последнюю. Для сидирования же укажите адрес новой папки.
Как закачать отдельный файл из торрента или докачать ранее пропущенные файлы торрента!
-

Как закачать отдельный файл

1. Открыть торрент
2. Снять галки с тех файлов торрента, которые мы не хотим закачивать. Оставляем только на нужных нам файлах (файле).
3. Нажать О.К.
В клиенте utorrent
Инструкция
1) Открыть торрент

2) Снять галки с тех файлов торрента, которые мы не хотим закачивать:
* либо вручную, снимая с каждого файла галку( скрин №1)
* либо, нажав кнопку "Снять метки (Select None)", сняв сразу со всех файлов(скрин №2)
№1

№2

Оставляем только на нужных нам файлах (файле).

3)Нажать О.К
-Добавлена первая серия второго сезона
Яндекс.Метрика
Рейтинг@Mail.ru