[ Сегодня на трекере фрилич! Идет свободное скачивание без начисления Download ]

Жемчужина Нила / The Jewel of the Nile (Льюис Тиг / Lewis Teague) [1985 г., Боевик, мелодрама, комедия, приключения, BDRip-AVC] AVO (Гаврилов) + DVO + original (Eng)

 

Создавать темы 06-Янв-2015 06:21

Жемчужина Нила / The Jewel of the Nile
Год выпуска: 1985
Производство: США
Жанр: Боевик, мелодрама, комедия, приключения
Продолжительность: 01:45:55
Перевод: Авторский (одноголосый, закадровый) Андрей Гаврилов
Перевод: Профессиональный (двухголосый, закадровый) DVO
Оригинальный аудиопоток: английский
Субтитры: отсутствуют
Режиссер: Льюис Тиг / Lewis Teague
В ролях: Майкл Дуглас, Кэтлин Тернер, Дэнни ДеВито, Spiros Focás, Avner Eisenberg, Пол Дэвид Магид, Ховард Джей Паттерсон, Рэндолл Эдвин Нельсон, Сэмюэл Росс Уильямс, Тимоти Дэниэл Ферст
Описание: Герои предыдущей части Джэк и Джоан живут спокойной, размеренной жизнью богатых бездельников. У них есть все, что могут позволить деньги: яхта, виллы, прислуга. Но им скучно.
Скучно друг с другом, и этим обществом. Чтобы развлечь себя, Джоан принимает приглашение арабского шейха посетить его восточную резиденцию. Но сказка обернулась кошмаром: арабский красавец похищает Джоан и требует выкуп — «жемчужину».
Джэк, заручившись поддержкой своего нового партнера Ральфа, принимает непростое решение — спасти Джоан. Но есть одно осложнение, Джэку хочет отомстить старый напарник.
, КиноПоиск
Качество видео: BDRip-AVC
Контейнер: MKV
Видео кодек: H.264
Аудио кодек: AC3
Видео: 1044x440, 23.976 fps, 4007 Kbps, 0.364 Bt/Px
Аудио : AC-3, 192 Kbps, 2 ch, 48.0 KHz Rus Гаврилов
Аудио : AC-3, 192 Kbps, 2 ch, 48.0 KHz Rus DVO
Аудио : AC-3, 192 Kbps, 2 ch, 48.0 KHz Eng Original

Media Info

G:\загрузки\Jemchuzina_nila_[Pirat.ca].torrent.mkv
General
Unique ID : 178103495283168211695882421339695742268 (0x85FD7C4831965B45B635BAB84D25FD3C)
Complete name : G:\загрузки\Jemchuzina_nila_[Pirat.ca].torrent.mkv
Format : Matroska
Format version : Version 1
File size : 3.46 GiB
Duration : 1h 45mn
Overall bit rate : 4 676 Kbps
Encoded date : UTC 2015-01-05 22:25:18
Writing application : mkvmerge v2.5.3 ('Boogie') built on Mar 7 2009 15:00:41
Writing library : libebml v0.7.7 + libmatroska v0.8.1
Video #1
ID : 1
Format : AVC
Format/Info : Advanced Video Codec
Format profile : [email protected]
Format settings, CABAC : Yes
Format settings, ReFrames : 12 frames
Codec ID : V_MPEG4/ISO/AVC
Duration : 1h 45mn
Bit rate : 4 007 Kbps
Width : 1 044 pixels
Height : 440 pixels
Display aspect ratio : 2.40:1
Frame rate mode : Constant
Frame rate : 23.976 fps
Color space : YUV
Chroma subsampling : 4:2:0
Bit depth : 8 bits
Scan type : Progressive
Bits/(Pixel*Frame) : 0.364
Stream size : 2.96 GiB (86%)
Writing library : x264 core 130 r2273 b3065e6
Encoding settings : cabac=1 / ref=12 / deblock=1:-3:-3 / analyse=0x3:0x133 / me=umh / subme=11 / psy=1 / psy_rd=1.00:0.10 / mixed_ref=1 / me_range=32 / chroma_me=1 / trellis=2 / 8x8dct=1 / cqm=0 / deadzone=21,11 / fast_pskip=1 / chroma_qp_offset=-3 / threads=6 / lookahead_threads=1 / sliced_threads=0 / nr=0 / decimate=1 / interlaced=0 / bluray_compat=0 / constrained_intra=0 / bframes=8 / b_pyramid=2 / b_adapt=2 / b_bias=0 / direct=1 / weightb=1 / open_gop=0 / weightp=2 / keyint=250 / keyint_min=23 / scenecut=40 / intra_refresh=0 / rc_lookahead=50 / rc=crf / mbtree=1 / crf=18.0 / qcomp=0.60 / qpmin=0 / qpmax=51 / qpstep=4 / ip_ratio=1.40 / aq=1:1.00
Language : English
Default : Yes
Forced : No
Audio #2
ID : 2
Format : AC-3
Format/Info : Audio Coding 3
Mode extension : CM (complete main)
Format settings, Endianness : Big
Codec ID : A_AC3
Duration : 1h 45mn
Bit rate mode : Constant
Bit rate : 192 Kbps
Channel(s) : 2 channels
Channel positions : Front: L R
Sampling rate : 48.0 KHz
Bit depth : 16 bits
Compression mode : Lossy
Stream size : 145 MiB (4%)
Title : AVO Гаврилов
Language : Russian
Default : Yes
Forced : No
Audio #3
ID : 3
Format : AC-3
Format/Info : Audio Coding 3
Mode extension : CM (complete main)
Format settings, Endianness : Big
Codec ID : A_AC3
Duration : 1h 45mn
Bit rate mode : Constant
Bit rate : 192 Kbps
Channel(s) : 2 channels
Channel positions : Front: L R
Sampling rate : 48.0 KHz
Bit depth : 16 bits
Compression mode : Lossy
Stream size : 145 MiB (4%)
Title : DVO
Language : Russian
Default : No
Forced : No
Audio #4
ID : 4
Format : AC-3
Format/Info : Audio Coding 3
Mode extension : CM (complete main)
Format settings, Endianness : Big
Codec ID : A_AC3
Duration : 1h 45mn
Bit rate mode : Constant
Bit rate : 192 Kbps
Channel(s) : 2 channels
Channel positions : Front: L R
Sampling rate : 48.0 KHz
Bit depth : 16 bits
Compression mode : Lossy
Stream size : 145 MiB (4%)
Language : English
Default : No
Forced : No

log x.264

x264 [info]: frame I:1147  Avg QP:16.57  size:102020
x264 [info]: frame P:34421 Avg QP:19.97 size: 37648
x264 [info]: frame B:116809 Avg QP:21.93 size: 15764
x264 [info]: consecutive B-frames: 1.6% 1.9% 8.8% 31.6% 22.0% 30.7% 2.1% 0.7% 0.5%
x264 [info]: mb I I16..4: 11.9% 66.1% 22.0%
x264 [info]: mb P I16..4: 0.5% 20.6% 2.4% P16..4: 25.7% 34.0% 13.5% 2.2% 0.2% skip: 0.8%
x264 [info]: mb B I16..4: 0.1% 4.0% 0.3% B16..8: 38.8% 24.6% 5.4% direct: 8.3% skip:18.5% L0:41.9% L1:42.9% BI:15.2%
x264 [info]: 8x8 transform intra:87.3% inter:61.0%
x264 [info]: coded y,uvDC,uvAC intra: 96.8% 80.9% 43.6% inter: 49.2% 33.9% 2.0%
x264 [info]: i16 v,h,dc,p: 38% 5% 21% 36%
x264 [info]: i8 v,h,dc,ddl,ddr,vr,hd,vl,hu: 10% 7% 9% 10% 14% 13% 13% 11% 13%
x264 [info]: i4 v,h,dc,ddl,ddr,vr,hd,vl,hu: 14% 12% 3% 8% 14% 13% 13% 10% 13%
x264 [info]: i8c dc,h,v,p: 37% 26% 20% 18%
x264 [info]: Weighted P-Frames: Y:9.2% UV:3.0%
x264 [info]: ref P L0: 38.0% 13.4% 18.4% 6.9% 6.0% 4.0% 3.9% 2.1% 2.2% 1.6% 1.7% 1.5% 0.3% 0.0%
x264 [info]: ref B L0: 77.6% 9.6% 4.2% 2.4% 1.6% 1.4% 1.1% 0.8% 0.6% 0.4% 0.2%
x264 [info]: ref B L1: 95.4% 4.6%
x264 [info]: kb/s:4096.45
x264 [total]: encoded 152377 frames, 4.92 fps, 4096.45 kb/s

Скриншоты

Яндекс.Метрика
Рейтинг@Mail.ru