[ Сегодня на трекере фрилич! Идет свободное скачивание без начисления Download ]

Стенка на стенку / Tuff Turf (Фриц Кирш / Fritz Kiersch) [1985 г., Боевик, драма, DVDRip-AVC] AVO (Гаврилов, Товбин) + VO (Яроцкий) + Original (Eng)

 

Создавать темы 06-Янв-2015 06:19

Стенка на стенку / Tuff Turf
Год выпуска: 1985
Производство: США
Жанр: Боевик, драма
Продолжительность: 01:51:35
Перевод: Авторский (одноголосый, закадровый) Андрей Гаврилов, Юрий Товбин
Перевод: Любительский (одноголосый, закадровый) Михаил Яроцкий
Оригинальный аудиопоток: английский
Субтитры: отсутствуют
Режиссер: Фриц Кирш / Fritz Kiersch
В ролях: Джеймс Спэйдер, Ким Ричардс, Пол Моунс, Роберт Дауни мл., Мэтт Кларк, Клодетт Невинс, Оливия Бэраш, Панчито Гомес, Майкл Уайл, Катя Сассун
Описание: В школе появляется новичок, который сразу начинает конфликтовать с местными «крутыми парнями». По мере развития сюжета конфликт постепенно нарастает, принимая всё более острые формы. В довершение ко всему у новенького ещё и возникает симпатия к подруге одного из хулиганов. Очевидно, что добром это не кончится…
, КиноПоиск
Качество видео: DVDRip-AVC
Контейнер: MKV
Видео кодек: H.264
Аудио кодек: AC3
Видео: 720x400, 23.976fps, 2064Kbps, 0.299 bt/px
Аудио : AC-3, 192 Kbps, 2 ch, 48.0 KHz Rus Гаврилов
Аудио : AC-3, 192 Kbps, 2 ch, 48.0 KHz Rus Товбин
Аудио : AC-3, 192 Kbps, 2 ch, 48.0 KHz Rus Яроцкий
Аудио : AC-3, 192 Kbps, 2 ch, 48.0 KHz Eng Original

Media Info

G:\загрузки\Tuff_Turf_[Pirat.ca].torrent.mkv
General
Unique ID : 238314506543875373029391524144791213322 (0xB349B455C0835A758E6A1A55DBB8D50A)
Complete name : G:\загрузки\Tuff_Turf_[Pirat.ca].torrent.mkv
Format : Matroska
Format version : Version 1
File size : 2.20 GiB
Duration : 1h 51mn
Overall bit rate : 2 827 Kbps
Movie name : Релиз Перелука Переводмана
Encoded date : UTC 2014-10-11 21:44:07
Writing application : mkvmerge v2.5.3 ('Boogie') built on Mar 7 2009 15:00:41
Writing library : libebml v0.7.7 + libmatroska v0.8.1
Attachment : Tuff_Turf_Poster.jpg
Video #1
ID : 1
Format : AVC
Format/Info : Advanced Video Codec
Format profile : [email protected]
Format settings, CABAC : Yes
Format settings, ReFrames : 9 frames
Codec ID : V_MPEG4/ISO/AVC
Duration : 1h 51mn
Bit rate : 2 064 Kbps
Width : 720 pixels
Height : 400 pixels
Display aspect ratio : 16:9
Frame rate mode : Constant
Frame rate : 23.976 fps
Color space : YUV
Chroma subsampling : 4:2:0
Bit depth : 8 bits
Scan type : Progressive
Bits/(Pixel*Frame) : 0.299
Stream size : 1.56 GiB (71%)
Writing library : x264 core 130 r2273 b3065e6
Encoding settings : cabac=1 / ref=9 / deblock=1:-1:-1 / analyse=0x3:0x133 / me=umh / subme=11 / psy=1 / psy_rd=1.00:0.10 / mixed_ref=1 / me_range=24 / chroma_me=1 / trellis=2 / 8x8dct=1 / cqm=0 / deadzone=21,11 / fast_pskip=0 / chroma_qp_offset=-3 / threads=4 / lookahead_threads=4 / sliced_threads=0 / nr=0 / decimate=0 / interlaced=0 / bluray_compat=0 / constrained_intra=0 / bframes=8 / b_pyramid=2 / b_adapt=2 / b_bias=0 / direct=1 / weightb=1 / open_gop=0 / weightp=2 / keyint=250 / keyint_min=23 / scenecut=40 / intra_refresh=0 / rc_lookahead=40 / rc=abr / mbtree=1 / bitrate=2064 / ratetol=1.0 / qcomp=0.60 / qpmin=0 / qpmax=69 / qpstep=4 / ip_ratio=1.40 / aq=1:1.00
Language : English
Default : Yes
Forced : No
Audio #2
ID : 2
Format : AC-3
Format/Info : Audio Coding 3
Mode extension : CM (complete main)
Format settings, Endianness : Big
Codec ID : A_AC3
Duration : 1h 51mn
Bit rate mode : Constant
Bit rate : 192 Kbps
Channel(s) : 2 channels
Channel positions : Front: L R
Sampling rate : 48.0 KHz
Bit depth : 16 bits
Compression mode : Lossy
Stream size : 153 MiB (7%)
Title : AVO Гаврилов
Language : Russian
Default : Yes
Forced : No
Audio #3
ID : 3
Format : AC-3
Format/Info : Audio Coding 3
Mode extension : CM (complete main)
Format settings, Endianness : Big
Codec ID : A_AC3
Duration : 1h 51mn
Bit rate mode : Constant
Bit rate : 192 Kbps
Channel(s) : 2 channels
Channel positions : Front: L R
Sampling rate : 48.0 KHz
Bit depth : 16 bits
Compression mode : Lossy
Stream size : 153 MiB (7%)
Title : AVO Товбин
Language : Russian
Default : No
Forced : No
Audio #4
ID : 4
Format : AC-3
Format/Info : Audio Coding 3
Mode extension : CM (complete main)
Format settings, Endianness : Big
Codec ID : A_AC3
Duration : 1h 51mn
Bit rate mode : Constant
Bit rate : 192 Kbps
Channel(s) : 2 channels
Channel positions : Front: L R
Sampling rate : 48.0 KHz
Bit depth : 16 bits
Compression mode : Lossy
Stream size : 153 MiB (7%)
Title : VO Яроцкий
Language : Russian
Default : No
Forced : No
Audio #5
ID : 5
Format : AC-3
Format/Info : Audio Coding 3
Mode extension : CM (complete main)
Format settings, Endianness : Big
Codec ID : A_AC3
Duration : 1h 51mn
Bit rate mode : Constant
Bit rate : 192 Kbps
Channel(s) : 2 channels
Channel positions : Front: L R
Sampling rate : 48.0 KHz
Bit depth : 16 bits
Compression mode : Lossy
Stream size : 153 MiB (7%)
Language : English
Default : No
Forced : No

Скриншоты

Яндекс.Метрика
Рейтинг@Mail.ru