[ Сегодня на трекере фрилич! Идет свободное скачивание без начисления Download ]

(Pop) Веселые Ребята - Не волнуйтесь, тетя - 2013 [FLAC, image+.cue, lossless]

 

Создавать темы 05-Янв-2015 20:49

-Веселые Ребята / Не волнуйтесь, тетя-- Год издания: 2013
Страна: Россия
Жанр: Pop
Продолжительность: 01:09:01-Лейбл издания: Bomb Music
Страна-выпуска диска: Россия
Номер по каталогу: BoMB 033 - 837
Формат: FLAC
Битрейт аудио: lossless
Тип рипа: image+.cue
Наличие сканов в содержимом раздачи: да

Трэклист

01.Утро (01:49)
02.Золотой ключик (03:18)
03.Мелочи жизни (02:48)
04.22+28 (02:49)
05.Хочу все знать (04:04)
06.Это все в Крыму (03:14)
07.Мушкетеры (02:33)
08.Пришла пора (04:05)
09.Бологое (03:46)
10.На земле живет любовь (03:43)
11.А дело было так (03:43)
12.Люби меня, как я тебя (03:06)
13.Розита (03:44)
14.Пустыня (06:17)
15.Ни минуты покоя (03:41)
16.Не волнуйтесь, тетя (04:25)
17.Двойка за весну (04:09)
18.Рыжий клоун (04:28)
19.Напиши мне письмо (03:12)

Лог создания рипа

Exact Audio Copy V1.0 beta 3 from 29. August 2011
EAC extraction logfile from 1. January 2015, 4:51
Веселые Ребята / Не волнуйтесь, тетя - Песни Вячеслава Добрынина
Used drive  : TEAC    DV-W524GSB   Adapter: 2  ID: 1
Read mode               : Secure
Utilize accurate stream : Yes
Defeat audio cache      : Yes
Make use of C2 pointers : No
Read offset correction                      : 6
Overread into Lead-In and Lead-Out          : No
Fill up missing offset samples with silence : Yes
Delete leading and trailing silent blocks   : No
Null samples used in CRC calculations       : Yes
Used interface                              : Native Win32 interface for Win NT & 2000
Used output format              : User Defined Encoder
Selected bitrate                : 320 kBit/s
Quality                         : High
Add ID3 tag                     : No
Command line compressor         : C:\Program Files\FLAC\flac.exe
Additional command line options : -V -8 -T "Date=%year%" -T "Genre=%genre%" %source%
TOC of the extracted CD
Track |   Start  |  Length  | Start sector | End sector
---------------------------------------------------------
1  |  0:00.00 |  1:49.37 |         0    |     8211
2  |  1:49.37 |  3:18.26 |      8212    |    23087
3  |  5:07.63 |  2:48.00 |     23088    |    35687
4  |  7:55.63 |  2:49.69 |     35688    |    48431
5  | 10:45.57 |  4:04.51 |     48432    |    66782
6  | 14:50.33 |  3:14.24 |     66783    |    81356
7  | 18:04.57 |  2:33.15 |     81357    |    92846
8  | 20:37.72 |  4:05.12 |     92847    |   111233
9  | 24:43.09 |  3:46.08 |    111234    |   128191
10  | 28:29.17 |  3:43.02 |    128192    |   144918
11  | 32:12.19 |  3:43.71 |    144919    |   161714
12  | 35:56.15 |  3:06.36 |    161715    |   175700
13  | 39:02.51 |  3:44.07 |    175701    |   192507
14  | 42:46.58 |  6:17.71 |    192508    |   220853
15  | 49:04.54 |  3:41.22 |    220854    |   237450
16  | 52:46.01 |  4:25.08 |    237451    |   257333
17  | 57:11.09 |  4:09.60 |    257334    |   276068
18  | 61:20.69 |  4:28.17 |    276069    |   296185
19  | 65:49.11 |  3:12.47 |    296186    |   310632
Range status and errors
Selected range
Filename C:\Веселые Ребята - Не волнуйтесь, тетя - Песни Вячеслава Добрынина.wav
Peak level 100.0 %
Extraction speed 6.5 X
Range quality 100.0 %
Test CRC 37BEC4C1
Copy CRC 37BEC4C1
Copy OK
No errors occurred
AccurateRip summary
Track  1  not present in database
Track  2  not present in database
Track  3  not present in database
Track  4  not present in database
Track  5  not present in database
Track  6  not present in database
Track  7  not present in database
Track  8  not present in database
Track  9  not present in database
Track 10  not present in database
Track 11  not present in database
Track 12  not present in database
Track 13  not present in database
Track 14  not present in database
Track 15  not present in database
Track 16  not present in database
Track 17  not present in database
Track 18  not present in database
Track 19  not present in database
None of the tracks are present in the AccurateRip database
End of status report

Индексная карта (non-compilant .cue)

REM GENRE Pop
REM DATE 2013
REM DISCID 1E102D13
REM COMMENT "ExactAudioCopy v1.0b3"
PERFORMER "Веселые Ребята"
TITLE "Не волнуйтесь, тетя - Песни Вячеслава Добрынина"
FILE "Веселые Ребята - Не волнуйтесь, тетя - Песни Вячеслава Добрынина.flac" WAVE
TRACK 01 AUDIO
TITLE "Утро"
PERFORMER "Веселые Ребята"
INDEX 01 00:00:00
TRACK 02 AUDIO
TITLE "Золотой ключик"
PERFORMER "Веселые Ребята"
INDEX 01 01:49:37
TRACK 03 AUDIO
TITLE "Мелочи жизни"
PERFORMER "Веселые Ребята"
INDEX 01 05:07:63
TRACK 04 AUDIO
TITLE "22+28"
PERFORMER "Веселые Ребята"
INDEX 01 07:55:63
TRACK 05 AUDIO
TITLE "Хочу все знать"
PERFORMER "Веселые Ребята"
INDEX 01 10:45:57
TRACK 06 AUDIO
TITLE "Это все в Крыму"
PERFORMER "Веселые Ребята"
INDEX 01 14:50:33
TRACK 07 AUDIO
TITLE "Мушкетеры"
PERFORMER "Веселые Ребята"
INDEX 01 18:04:57
TRACK 08 AUDIO
TITLE "Пришла пора"
PERFORMER "Веселые Ребята"
INDEX 01 20:37:72
TRACK 09 AUDIO
TITLE "Бологое"
PERFORMER "Веселые Ребята"
INDEX 01 24:43:09
TRACK 10 AUDIO
TITLE "На земле живет любовь"
PERFORMER "Веселые Ребята"
INDEX 01 28:29:17
TRACK 11 AUDIO
TITLE "А дело было так"
PERFORMER "Веселые Ребята"
INDEX 01 32:12:19
TRACK 12 AUDIO
TITLE "Люби меня, как я тебя"
PERFORMER "Веселые Ребята"
INDEX 01 35:56:15
TRACK 13 AUDIO
TITLE "Розита"
PERFORMER "Веселые Ребята"
INDEX 01 39:02:51
TRACK 14 AUDIO
TITLE "Пустыня"
PERFORMER "Веселые Ребята"
INDEX 01 42:46:58
TRACK 15 AUDIO
TITLE "Ни минуты покоя"
PERFORMER "Веселые Ребята"
INDEX 01 49:04:54
TRACK 16 AUDIO
TITLE "Не волнуйтесь, тетя"
PERFORMER "Веселые Ребята"
INDEX 01 52:46:01
TRACK 17 AUDIO
TITLE "Двойка за весну"
PERFORMER "Веселые Ребята"
INDEX 01 57:11:09
TRACK 18 AUDIO
TITLE "Рыжий клоун"
PERFORMER "Веселые Ребята"
INDEX 01 61:20:69
TRACK 19 AUDIO
TITLE "Напиши мне письмо"
PERFORMER "Веселые Ребята"
INDEX 01 65:49:11

дополнительная информация:

--
Яндекс.Метрика
Рейтинг@Mail.ru