Gianna Nannini - Hitalia (2014) [FLAC|Lossless]<Pop, Italian Pop, Pop-Rock>

 

Создавать темы 05-Янв-2015 20:18

-Gianna Nannini - Hitalia (2014)- Год: 2014
Жанр: Pop, Italian Pop, Pop-Rock, Covers
Лейбл: RCA Records / Z-Music / Sony Music (Italy)
Номер по каталогу: 88875042512
EAN/UPC: 0888750425126
Страна: EU
Продолжительность: 00:57:04
Тип рипа: tracks+.cue
Кодек: FLAC
Битрейт: Lossless
Наличие сканов в содержимом раздачи: да
Треклист:
01. Dio è morto (2:51)
02. L'immensità (2:57)
03. Lontano dagli occhi (3:39)
04. Il cielo in una stanza (feat. Gino Paoli) (3:25)
05. Dedicato (3:19)
06. La canzone di Marinella (3:28)
07. C'è chi dice no (very special guest: Vasco Rossi) (3:35)
08. Io che non vivo senza te (2:50)
09. Io che amo solo te (3:12)
10. Mamma (3:36)
11. Insieme a te non ci stо piu (3:22)
12. Caruso (5:03)
13. Il mondo (2:42)
14. Pugni chiusi (2:29)
15. 'O sole mio (feat. Massimo Ranieri) (3:13)
16. Un'avventura (3:39)
17. Volare (nel blu dipinto di blu) (3:40)

Отчёт ЕАС&#58;

Exact Audio Copy V1.0 beta 3 from 29. August 2011
EAC extraction logfile from 7. December 2014, 0:22
Gianna Nannini / Hitalia
Used drive  : TSSTcorpCDDVDW SH-224DB   Adapter: 0  ID: 1
Read mode               : Secure
Utilize accurate stream : Yes
Defeat audio cache      : Yes
Make use of C2 pointers : No
Read offset correction                      : 6
Overread into Lead-In and Lead-Out          : No
Fill up missing offset samples with silence : Yes
Delete leading and trailing silent blocks   : No
Null samples used in CRC calculations       : Yes
Used interface                              : Installed external ASPI interface
Gap handling                                : Appended to previous track
Used output format              : User Defined Encoder
Selected bitrate                : 1024 kBit/s
Quality                         : High
Add ID3 tag                     : No
Command line compressor         : C:\Program Files\Exact Audio Copy\FLAC\FLAC.EXE
Additional command line options : -8 -V -T "ARTIST=%artist%" -T "TITLE=%title%" -T "ALBUM=%albumtitle%" -T "DATE=%year%" -T "TRACKNUMBER=%tracknr%" -T "GENRE=%genre%" -T "PERFORMER=%albuminterpret%" -T "COMPOSER=%composer%" %haslyrics%--tag-from-file=LYRICS="%lyricsfile%"%haslyrics% -T "ALBUMARTIST=%albumartist%" -T "DISCNUMBER=%cdnumber%" -T "TOTALDISCS=%totalcds%" -T "TOTALTRACKS=%numtracks%" -T "COMMENT=%comment%" %source% -o %dest%
TOC of the extracted CD
     Track |   Start  |  Length  | Start sector | End sector
    ---------------------------------------------------------
        1  |  0:00.00 |  2:51.09 |         0    |    12833
        2  |  2:51.09 |  2:57.14 |     12834    |    26122
        3  |  5:48.23 |  3:39.08 |     26123    |    42555
        4  |  9:27.31 |  3:25.08 |     42556    |    57938
        5  | 12:52.39 |  3:19.59 |     57939    |    72922
        6  | 16:12.23 |  3:28.67 |     72923    |    88589
        7  | 19:41.15 |  3:35.35 |     88590    |   104749
        8  | 23:16.50 |  2:50.09 |    104750    |   117508
        9  | 26:06.59 |  3:12.11 |    117509    |   131919
       10  | 29:18.70 |  3:36.06 |    131920    |   148125
       11  | 32:55.01 |  3:22.15 |    148126    |   163290
       12  | 36:17.16 |  5:03.61 |    163291    |   186076
       13  | 41:21.02 |  2:41.74 |    186077    |   198225
       14  | 44:03.01 |  2:29.44 |    198226    |   209444
       15  | 46:32.45 |  3:13.12 |    209445    |   223931
       16  | 49:45.57 |  3:38.71 |    223932    |   240352
       17  | 53:24.53 |  3:40.29 |    240353    |   256881
Track  1
     Filename C:\EAC\01. Gianna Nannini - Dio e' morto.wav
     Pre-gap length  0:00:02.00
     Peak level 98.8 %
     Extraction speed 1.6 X
     Track quality 100.0 %
     Test CRC D92CB048
     Copy CRC D92CB048
     Track not present in AccurateRip database
     Copy OK
Track  2
     Filename C:\EAC\02. Gianna Nannini - L'immensita'.wav
     Peak level 98.8 %
     Extraction speed 1.7 X
     Track quality 100.0 %
     Test CRC EE4C526E
     Copy CRC EE4C526E
     Track not present in AccurateRip database
     Copy OK
Track  3
     Filename C:\EAC\03. Gianna Nannini - Lontano dagli occhi.wav
     Peak level 98.8 %
     Extraction speed 1.6 X
     Track quality 99.9 %
     Test CRC 5832BD73
     Copy CRC 5832BD73
     Track not present in AccurateRip database
     Copy OK
Track  4
     Filename C:\EAC\04. Gianna Nannini - Il cielo in una stanza.wav
     Peak level 98.8 %
     Extraction speed 2.1 X
     Track quality 100.0 %
     Test CRC 2F40CB44
     Copy CRC 2F40CB44
     Track not present in AccurateRip database
     Copy OK
Track  5
     Filename C:\EAC\05. Gianna Nannini - Dedicato.wav
     Peak level 98.8 %
     Extraction speed 2.0 X
     Track quality 100.0 %
     Test CRC 313059CE
     Copy CRC 313059CE
     Track not present in AccurateRip database
     Copy OK
Track  6
     Filename C:\EAC\06. Gianna Nannini - La canzone di Marinella.wav
     Peak level 98.8 %
     Extraction speed 2.3 X
     Track quality 100.0 %
     Test CRC EA8A3F2B
     Copy CRC EA8A3F2B
     Track not present in AccurateRip database
     Copy OK
Track  7
     Filename C:\EAC\07. Gianna Nannini - C'e' chi dice no.wav
     Peak level 94.4 %
     Extraction speed 1.9 X
     Track quality 99.9 %
     Test CRC 8A53F161
     Copy CRC 8A53F161
     Track not present in AccurateRip database
     Copy OK
Track  8
     Filename C:\EAC\08. Gianna Nannini - Io che non vivo senza te.wav
     Peak level 98.8 %
     Extraction speed 2.4 X
     Track quality 100.0 %
     Test CRC ACC8FB2B
     Copy CRC ACC8FB2B
     Track not present in AccurateRip database
     Copy OK
Track  9
     Filename C:\EAC\09. Gianna Nannini - Io che amo solo te.wav
     Peak level 98.8 %
     Extraction speed 2.6 X
     Track quality 100.0 %
     Test CRC 445A8638
     Copy CRC 445A8638
     Track not present in AccurateRip database
     Copy OK
Track 10
     Filename C:\EAC\10. Gianna Nannini - Mamma.wav
     Peak level 98.8 %
     Extraction speed 2.7 X
     Track quality 100.0 %
     Test CRC 31EAF9BC
     Copy CRC 31EAF9BC
     Track not present in AccurateRip database
     Copy OK
Track 11
     Filename C:\EAC\11. Gianna Nannini - Insieme a te non ci sto piu'.wav
     Peak level 98.8 %
     Extraction speed 2.2 X
     Track quality 99.9 %
     Test CRC 92126A44
     Copy CRC 92126A44
     Track not present in AccurateRip database
     Copy OK
Track 12
     Filename C:\EAC\12. Gianna Nannini - Caruso.wav
     Peak level 98.9 %
     Extraction speed 3.0 X
     Track quality 100.0 %
     Test CRC 791B7FA1
     Copy CRC 791B7FA1
     Track not present in AccurateRip database
     Copy OK
Track 13
     Filename C:\EAC\13. Gianna Nannini - Il mondo.wav
     Peak level 98.8 %
     Extraction speed 2.0 X
     Track quality 99.9 %
     Test CRC CCA15B55
     Copy CRC CCA15B55
     Track not present in AccurateRip database
     Copy OK
Track 14
     Filename C:\EAC\14. Gianna Nannini - Pugni chiusi.wav
     Peak level 98.8 %
     Extraction speed 2.8 X
     Track quality 100.0 %
     Test CRC CFA47E9C
     Copy CRC CFA47E9C
     Track not present in AccurateRip database
     Copy OK
Track 15
     Filename C:\EAC\15. Gianna Nannini - 'O sole mio.wav
     Peak level 98.8 %
     Extraction speed 3.0 X
     Track quality 100.0 %
     Test CRC 4A993981
     Copy CRC 4A993981
     Track not present in AccurateRip database
     Copy OK
Track 16
     Filename C:\EAC\16. Gianna Nannini - Un'avventura.wav
     Peak level 98.8 %
     Extraction speed 3.0 X
     Track quality 100.0 %
     Test CRC 60F87F60
     Copy CRC 60F87F60
     Track not present in AccurateRip database
     Copy OK
Track 17
     Filename C:\EAC\17. Gianna Nannini - Volare (Nel blu dipinto di blu).wav
     Peak level 98.8 %
     Extraction speed 3.3 X
     Track quality 100.0 %
     Test CRC 67760097
     Copy CRC 67760097
     Track not present in AccurateRip database
     Copy OK
None of the tracks are present in the AccurateRip database
No errors occurred
End of status report
---- CUETools DB Plugin V2.1.4
[CTDB TOCID: Kl6F8r563BloaxhkpB1UoGn50x4-] disk not present in database
Submit result: Kl6F8r563BloaxhkpB1UoGn50x4- has been uploaded
==== Log checksum 7C4B34DD28E19E0E12CAC037CACE40FAA6FE756CA3509F24F98B1C1F999C2F6B ====

Отчёт auCDtect Task manager&#58;

PERFORMER: auCDtect Task Manager, ver. 1.6.0 RC1 build 1.6.0.1
Copyright (c) 2008-2010 y-soft. All rights reserved
http://y-soft.org
ANALYZER: auCDtect: CD records authenticity detector, version 0.8.2
Copyright (c) 2004 Oleg Berngardt. All rights reserved.
Copyright (c) 2004 Alexander Djourik. All rights reserved.
FILE: 17. Gianna Nannini - Volare (Nel blu dipinto di blu).flac
  Size: 26193168 Hash: 1B8502DA64EF75F4145C851C0875E97A Accuracy: -m0
  Conclusion: CDDA 100%
  Signature: 03BDCC3941722982E0ECBCF8355D5E83A57961EC
FILE: 16. Gianna Nannini - Un'avventura.flac
  Size: 27203070 Hash: 6EED68AC3041E6078A5632A8EE72E835 Accuracy: -m0
  Conclusion: CDDA 87%
  Signature: D526BE0192611587719C00BD6EEA48CD55148179
FILE: 15. Gianna Nannini - 'O sole mio.flac
  Size: 23948498 Hash: 4CEA606AB53706CB0B143DF664AEC7B0 Accuracy: -m0
  Conclusion: CDDA 100%
  Signature: D654CAC623089E4B797C00228EE0897B1992FE11
FILE: 14. Gianna Nannini - Pugni chiusi.flac
  Size: 18409838 Hash: D7FF7D61954B72ED232F0AD9DD6C000F Accuracy: -m0
  Conclusion: CDDA 87%
  Signature: 0383E6B1DD43A650D4DBF96A68CA1BF3A7A52DAC
FILE: 13. Gianna Nannini - Il mondo.flac
  Size: 20239355 Hash: C2465CEA5A9BF971EDE29EB264E40320 Accuracy: -m0
  Conclusion: CDDA 99%
  Signature: F7DD76413F085BB48FAFB04FF2FBBE6D4090522B
FILE: 12. Gianna Nannini - Caruso.flac
  Size: 32305702 Hash: B824B38D9C28D949865F43F965725F04 Accuracy: -m0
  Conclusion: CDDA 100%
  Signature: E0FD0C0A61B9726C97DFF4CF1CD43BB951A23AA4
FILE: 11. Gianna Nannini - Insieme a te non ci sto piu'.flac
  Size: 24927640 Hash: BC45B7769649017045D76801722CFA57 Accuracy: -m0
  Conclusion: CDDA 100%
  Signature: B55D58DDD24B1559FAC2A51280FF4792B71E08DF
FILE: 10. Gianna Nannini - Mamma.flac
  Size: 28223674 Hash: D243800443C7E332D0178C2091B502AF Accuracy: -m0
  Conclusion: CDDA 100%
  Signature: 41AD6069799CA197A4860420F9C478ADC87A59D8
FILE: 09. Gianna Nannini - Io che amo solo te.flac
  Size: 21953133 Hash: B5AA8BBE1B105A6ACB833AB1E4F9D63D Accuracy: -m0
  Conclusion: CDDA 100%
  Signature: A0482192F9947AAF504D50921B1728DC75F86DA9
FILE: 08. Gianna Nannini - Io che non vivo senza te.flac
  Size: 19667510 Hash: 01980659ABDB357096008D8B1936EDF2 Accuracy: -m0
  Conclusion: CDDA 100%
  Signature: F39493F7621536B6AEE41B82904B0146B9EC3296
FILE: 07. Gianna Nannini - C'e' chi dice no.flac
  Size: 26858511 Hash: 113FC315D3B73AA9E58B7C513FC27CCD Accuracy: -m0
  Conclusion: MPEG 95%
  Signature: 7E87B3626F390EB4464D020712D1D13E9240C32F
FILE: 06. Gianna Nannini - La canzone di Marinella.flac
  Size: 25856879 Hash: 7B80FAD130F2363CC7E0D5B603121AF3 Accuracy: -m0
  Conclusion: CDDA 100%
  Signature: A0B282FD4314B8A96D111F830D0819E2913F1FCC
FILE: 05. Gianna Nannini - Dedicato.flac
  Size: 25974013 Hash: A4EC7BD1EE26ED43E854F0C3E7431897 Accuracy: -m0
  Conclusion: CDDA 100%
  Signature: 76700CDE54FB4AEBCFBF3AF2B93548BC27A2598C
FILE: 04. Gianna Nannini - Il cielo in una stanza.flac
  Size: 21723437 Hash: 9979A8375F5F7633235AAB4AFBE3F568 Accuracy: -m0
  Conclusion: CDDA 100%
  Signature: 9380E39702222550FEE0ECC626B05BE09935A70C
FILE: 03. Gianna Nannini - Lontano dagli occhi.flac
  Size: 28166903 Hash: 8F264BBCE4685335C291024D216A6D3D Accuracy: -m0
  Conclusion: CDDA 100%
  Signature: 5FEED41EDFC91737AC89C817376554ADAF173EDA
FILE: 02. Gianna Nannini - L'immensita'.flac
  Size: 22461335 Hash: 18B74302D9841855BB1F9F06072F1AC2 Accuracy: -m0
  Conclusion: CDDA 100%
  Signature: 00E359A11F5646EB84927C54457AFE7FD0CF3CF6
FILE: 01. Gianna Nannini - Dio e' morto.flac
  Size: 21157709 Hash: 730F67556571523DC16F125FFF1131C3 Accuracy: -m0
  Conclusion: CDDA 99%
  Signature: 25A8E0625CF4B84EECF69E5809BCA99FAD6B389C
-Об исполнителе:Джанна Наннини (Gianna Nannini) - известная итальянская певица и композитор, старшая сестра гонщика Формулы-1 Алессандро Наннини. Джанна Наннини родилась в Сиене 14 июня 1956 года, в контраде Гуся. Её отец, Данило Наннини, был известным промышленным кондитером и в различные годы возглавлял футбольный клуб Siena Calcio. Джанна учится в научном лицее и в музыкальной школе по классу фортепиано в консерватории города Лукка. Впоследствии она переезжает в Милан, чтобы посвятить себя музыке. В Милане она выступает в различных исторических заведениях, таких, как L'Osteria dell'Operetta, Le Scimmie, Il Rosso, и знакомится с блюзовым музыкантом Igor Campaner, который будет работать с ней на концертах, а в 1988 году поможет в работе над многими композициями для альбома Malafemmina. В 1976 году издает свой дебютный альбом «Gianna Nannini», на лэйбле Dischi Recordi. В 1990 году совместно с Эдоардо Беннато исполнила Un'estate italiana, официальный гимн Чемпионата мира по футболу. В дискографии певицы 20 студийных альбомов, 3 "концертника" и 5 сборников.--
Яндекс.Метрика
Рейтинг@Mail.ru