[ Сегодня на трекере фрилич! Идет свободное скачивание без начисления Download ]

Виноваты звезды / The Fault in Our Stars (2014) BDRip [H.264] [Extended Cut]

 

Создавать темы 05-Янв-2015 17:31

-Виноваты звезды / The Fault in Our Stars (2014) BDRip- Год выпуска: 2014
Производство: США, Temple Hill Entertainment
Жанр: Драма, мелодрама
Режиссер: Джош Бун
Продюсер: Марти Бауэн, Вик Годфри, Мишель Императо
Актеры: Шэйлин Вудли, Энсел Эльгорт, Лора Дерн, Сэм Трэммелл, Нат Вулф, Уиллем Дефо, Лотте Вербеек, Ана Дела Крус, Рэнди Ковиц. Тони Саладна
Описание фильма:
Хэйзел больна раком. Несмотря на то, что болезнь временно отступила, девушка не чувствует ни капли радости. Она ходит в группу поддержки, где однажды знакомится с Августом Уотерсом и моментально влюбляется в него. Август и Хэйзел отправляются в полное страсти и жизни путешествие, которое лишний раз покажет им, что весь смысл жизни можно найти в любом ее отрезке.
Перевод: Дублированный (лицензия)
Язык субтитров: Русский, английский
Вид субтитров: Вшитые (отключаемые)

Дата мировой премьеры: 16 мая 2014
Дата российской премьеры: 4 сентября 2014
Дата выхода DVD релиза: 16 октября 2014
Дата выхода Blu-Ray релиза: 16 октября 2014
Продолжительность: 02:12:53
Качество видео: BDRip (AVC)
Видеокодек: MPEG-4 AVC
Битрейт видео: ~1897 Кбит/с
Размер кадра: 1024x552
Аудиокодек: AC3 6 ch
Битрейт аудио: 448 Кбит/с

MediaInfo:

Общее
Уникальный идентификатор : 17412180270884553153590090127365540310 (0xD1976C4A552072CE1943F4EC17A89D6)
Полное имя : C:\NNM\Виноваты звезды\Vinovaty zvezdy 2014 BDRip AVC.mkv
Формат : Matroska
Версия формата : Version 2
Размер файла : 2,18 Гбайт
Продолжительность : 2 ч. 12 м.
Общий поток : 2345 Кбит/сек
Программа кодирования : mkvmerge v5.0.1 ('Es ist Sommer') built on Oct 23 2011 00:46:40
Библиотека кодирования : libebml v1.2.2 + libmatroska v1.3.0
Attachment : Yes
Видео
Идентификатор : 1
Формат : AVC
Формат/Информация : Advanced Video Codec
Профиль формата : [url=mailto:[email protected]][email protected][/url]
Параметр CABAC формата : Да
Параметр ReFrames формата : 8 кадров
Идентификатор кодека : V_MPEG4/ISO/AVC
Продолжительность : 2 ч. 12 м.
Битрейт : 1897 Кбит/сек
Ширина : 1024 пикселя
Высота : 552 пикселя
Соотношение сторон : 1,855
Частота кадров : 23,976 кадра/сек
Цветовое пространство : YUV
Субдискретизация насыщенности : 4:2:0
Битовая глубина : 8 бит
Тип развёртки : Прогрессивная
Бит/(Пиксели*Кадры) : 0.140
Размер потока : 1,72 Гбайт (79%)
Библиотека кодирования : x264 core 125 r2208 d9d2288
Настройки программы : cabac=1 / ref=8 / deblock=1:-3:-3 / analyse=0x3:0x133 / me=umh / subme=11 / psy=1 / psy_rd=1.00:0.00 / mixed_ref=1 / me_range=32 / chroma_me=1 / trellis=2 / 8x8dct=1 / cqm=0 / deadzone=21,11 / fast_pskip=0 / chroma_qp_offset=-2 / threads=12 / lookahead_threads=2 / sliced_threads=0 / nr=0 / decimate=1 / interlaced=0 / bluray_compat=0 / constrained_intra=0 / bframes=8 / b_pyramid=2 / b_adapt=2 / b_bias=0 / direct=3 / weightb=1 / open_gop=0 / weightp=2 / keyint=250 / keyint_min=23 / scenecut=40 / intra_refresh=0 / rc=2pass / mbtree=0 / bitrate=1897 / ratetol=1.0 / qcomp=0.60 / qpmin=0 / qpmax=69 / qpstep=4 / cplxblur=20.0 / qblur=0.5 / ip_ratio=1.10 / pb_ratio=1.10 / aq=1:1.00
Язык : English
Default : Да
Forced : Нет
Аудио
Идентификатор : 2
Формат : AC-3
Формат/Информация : Audio Coding 3
Расширение режима : CM (complete main)
Идентификатор кодека : A_AC3
Продолжительность : 2 ч. 12 м.
Вид битрейта : Постоянный
Битрейт : 448 Кбит/сек
Каналы : 6 каналов
Расположение каналов : Front: L C R, Side: L R, LFE
Частота : 48,0 КГц
Битовая глубина : 16 бит
Метод сжатия : С потерями
Размер потока : 426 Мбайт (19%)
Язык : Russian
Default : Да
Forced : Да
Текст #1
Идентификатор : 3
Формат : UTF-8
Идентификатор кодека : S_TEXT/UTF8
Идентификатор кодека/Информация : UTF-8 Plain Text
Язык : Russian
Default : Нет
Forced : Нет
Текст #2
Идентификатор : 4
Формат : UTF-8
Идентификатор кодека : S_TEXT/UTF8
Идентификатор кодека/Информация : UTF-8 Plain Text
Язык : English
Default : Нет
Forced : Нет
Текст #3
Идентификатор : 5
Формат : UTF-8
Идентификатор кодека : S_TEXT/UTF8
Идентификатор кодека/Информация : UTF-8 Plain Text
Заголовок : SDH
Язык : English
Default : Нет
Forced : Нет
Меню
00:00:00.000 : en:00:00:00.000
00:02:34.529 : en:00:02:34.529
00:06:25.594 : en:00:06:25.594
00:13:01.906 : en:00:13:01.906
00:15:07.615 : en:00:15:07.615
00:18:12.591 : en:00:18:12.591
00:21:05.681 : en:00:21:05.681
00:24:59.790 : en:00:24:59.790
00:28:35.380 : en:00:28:35.380
00:31:30.806 : en:00:31:30.806
00:38:12.874 : en:00:38:12.874
00:41:51.217 : en:00:41:51.217
00:49:19.832 : en:00:49:19.832
00:56:41.606 : en:00:56:41.606
01:02:27.327 : en:01:02:27.327
01:05:40.979 : en:01:05:40.979
01:08:17.427 : en:01:08:17.427
01:14:57.743 : en:01:14:57.743
01:20:58.479 : en:01:20:58.479
01:25:30.333 : en:01:25:30.333
01:29:04.339 : en:01:29:04.339
01:34:50.476 : en:01:34:50.476
01:43:59.024 : en:01:43:59.024
01:46:27.089 : en:01:46:27.089
01:52:18.482 : en:01:52:18.482
01:57:25.455 : en:01:57:25.455
02:01:09.304 : en:02:01:09.304
02:06:16.402 : en:02:06:16.402
Скриншоты:
-Время раздачи: Круглосуточно до 10 скачавших
Яндекс.Метрика
Рейтинг@Mail.ru