Так или иначе / A annan veg (2011) DVDRip

 

Создавать темы 05-Янв-2015 17:16

-Так или иначе / A annan veg (2011) DVDRip- Год выпуска: 2011
Производство: Исландия
Жанр: Комедия, драма
Режиссер: Хафстейнн Гуннар Сигурдссон
Актеры: Свейнн Олаф Гуннарссон, Хильмар Гудьйонссон, Торстейнн Бахманн, Вальгерд Рунарсдоттир, Рунольф, Торбьорн Гудмундссон
Описание фильма:
Финнбоги и Альфред проводят лето, рисуя линии на дорогах, тянущихся до горизонта. Финнбоги, самый опытный из них двоих, пообещал оказать семье Альфреда услугу — забрать его с собой на лето и сделать из него мужчину. Фильм повествует о двух противоположных характерах, пытающихся уживаться вместе в дикой местности за неимением лучшего способа времяпрепровождения...
Перевод: Любительский одноголосый [PashaUp]
Субтитры: Отсутствуют

Продолжительность: 01:21:00
Качество видео: DVDRip
Видеокодек: XviD
Битрейт видео: ~1069 Кбит/с
Размер кадра: 640x272
Аудиокодек: MP3 2 ch
Битрейт аудио: 128 Кбит/с

MediaInfo:

Общее
Полное имя : C:\NNM\Так или иначе\Tak ili inache 2011 DVDRip.avi
Формат : AVI
Формат/Информация : Audio Video Interleave
Размер файла : 699 Мбайт
Продолжительность : 1 ч. 21 м.
Общий поток : 1207 Кбит/сек
Программа кодирования : VirtualDubMod 1.5.10.2 (build 2540/release)
Библиотека кодирования : VirtualDubMod build 2540/release
Видео
Идентификатор : 0
Формат : MPEG-4 Visual
Профиль формата : Advanced [email protected]
Параметр BVOP формата : 1
Параметр QPel формата : Нет
Параметр GMC формата : Без точки перехода
Параметр матрицы формата : Default (H.263)
Идентификатор кодека : XVID
Идентификатор кодека/Подсказка : XviD
Продолжительность : 1 ч. 21 м.
Битрейт : 1069 Кбит/сек
Ширина : 640 пикселей
Высота : 272 пикселя
Соотношение сторон : 2,35:1
Частота кадров : 25,000 кадров/сек
Цветовое пространство : YUV
Субдискретизация насыщенности : 4:2:0
Битовая глубина : 8 бит
Тип развёртки : Прогрессивная
Метод сжатия : С потерями
Бит/(Пиксели*Кадры) : 0.246
Размер потока : 619 Мбайт (89%)
Библиотека кодирования : XviD 64
Аудио
Идентификатор : 1
Формат : MPEG Audio
Версия формата : Version 1
Профиль формата : Layer 3
Режим : Joint stereo
Идентификатор кодека : 55
Идентификатор кодека/Подсказка : MP3
Продолжительность : 1 ч. 21 м.
Вид битрейта : Постоянный
Битрейт : 128 Кбит/сек
Каналы : 2 канала
Частота : 48,0 КГц
Метод сжатия : С потерями
Размер потока : 74,2 Мбайт (11%)
Выравнивание : Соединение по промежуткам
Продолжительность промежутка : 40 мс. (1,00 видеокадр)
Время предзагрузки промежутка : 504 мс.
Скриншоты:-Время раздачи:Круглосуточно до 10 скачавших
Яндекс.Метрика
Рейтинг@Mail.ru