[ Сегодня на трекере фрилич! Идет свободное скачивание без начисления Download ]

Окно в страну чудес / Window Wonderland (2013) SATRip

 

Создавать темы 05-Янв-2015 17:08

-Окно в страну чудес / Window Wonderland (2013) SATRip- Год выпуска: 2013
Производство: Канада
Жанр: Комедия, семейный, мелодрама
Режиссер: Майкл Скотт
Актеры: Кайлер Ли, Пол Кэмпбелл, Наоми Джудд, Теренс Келли, Мэтти Финочио, Камерон Мэттисон, Эрик Кинлисайд, Кристи Лэйн, Тобиаш Слезак
Описание фильма:
Два совершенно не похожих друг на друга сотрудника соревнуются за право оформлять витрину к празднику в известном универмаге Манхэттена.

Перевод: Профессиональный многоголосый
Субтитры: Отсутствуют
Продолжительность: 01:22:56
Качество видео: SATRip
Видеокодек: DivX 5
Битрейт видео: ~999 Кбит/с
Размер кадра: 720x464
Аудиокодек: AC3 2 ch
Битрейт аудио: 192 Кбит/с

MediaInfo:

Общее
Полное имя : C:\NNM\Окно в страну чудес\Okno v stranu chudes 2013 SATRip.avi
Формат : AVI
Формат/Информация : Audio Video Interleave
Размер файла : 712 Мбайт
Продолжительность : 1 ч. 22 м.
Общий поток : 1201 Кбит/сек
Программа кодирования : VirtualDubMod 1.5.10.3
Библиотека кодирования : VirtualDubMod build 2550/release
Видео
Идентификатор : 0
Формат : MPEG-4 Visual
Профиль формата : Advanced [email protected]
Параметр BVOP формата : 2
Параметр QPel формата : Нет
Параметр GMC формата : Без точки перехода
Параметр матрицы формата : Default (H.263)
Идентификатор кодека : DX50
Идентификатор кодека/Подсказка : DivX 5
Продолжительность : 1 ч. 22 м.
Битрейт : 999 Кбит/сек
Ширина : 720 пикселей
Высота : 464 пикселя
Соотношение сторон : 1,552
Частота кадров : 25,000 кадров/сек
Цветовое пространство : YUV
Субдискретизация насыщенности : 4:2:0
Битовая глубина : 8 бит
Тип развёртки : Прогрессивная
Метод сжатия : С потерями
Бит/(Пиксели*Кадры) : 0.120
Размер потока : 593 Мбайт (83%)
Библиотека кодирования : XviD 1.2.1 (UTC 2008-12-04)
Аудио
Идентификатор : 1
Формат : AC-3
Формат/Информация : Audio Coding 3
Расширение режима : CM (complete main)
Идентификатор кодека : 2000
Продолжительность : 1 ч. 22 м.
Вид битрейта : Постоянный
Битрейт : 192 Кбит/сек
Каналы : 2 канала
Расположение каналов : Front: L R
Частота : 48,0 КГц
Битовая глубина : 16 бит
Метод сжатия : С потерями
Размер потока : 114 Мбайт (16%)
Выравнивание : Разделение по промежуткам
Продолжительность промежутка : 40 мс. (1,00 видеокадр)
Время предзагрузки промежутка : 500 мс.
Скриншоты:-Время раздачи:Круглосуточно до 10 скачавших
Яндекс.Метрика
Рейтинг@Mail.ru