Гость на Рождество / Guess Who's Coming to Christmas (2013) SATRip

 

Создавать темы 05-Янв-2015 06:12

-Гость на Рождество / Guess Who's Coming to Christmas (2013) SATRip- Год выпуска: 2013
Производство: Канада
Жанр: Мелодрама, комедия
Режиссер: Кристоффер Табори
Актеры: Дрю Лаше, МакКензи Портер, Эван Бёрд, Оливия Ченг, Элли Харви, Питер ЛаКруа, Мэтт Уорд
Описание фильма:
Уставший от жизни рокер соглашается выступить на рождественском концерте в маленьком городе. Вскоре его покоряет тихая и спокойная местная жизнь.
Перевод: Профессиональный двухголосый
Субтитры: Отсутствуют

Продолжительность: 01:20:37
Качество видео: SATRip
Видеокодек: XviD
Битрейт видео: ~1197 Кбит/с
Размер кадра: 720x400
Аудиокодек: MP3 2 ch
Битрейт аудио: 128 Кбит/с

MediaInfo:

Общее
Полное имя : C:\NNM\Гость на Рождество\Gostj na Rozhdestvo 2013 SATRip.avi
Формат : AVI
Формат/Информация : Audio Video Interleave
Размер файла : 770 Мбайт
Продолжительность : 1 ч. 20 м.
Общий поток : 1335 Кбит/сек
Программа кодирования : VirtualDubMod 1.5.10.3 (build 2550/release)
Библиотека кодирования : VirtualDubMod build 2550/release
Видео
Идентификатор : 0
Формат : MPEG-4 Visual
Профиль формата : Advanced [email protected]
Параметр BVOP формата : 2
Параметр QPel формата : Нет
Параметр GMC формата : Без точки перехода
Параметр матрицы формата : Default (H.263)
Идентификатор кодека : DX50
Идентификатор кодека/Подсказка : DivX 5
Продолжительность : 1 ч. 20 м.
Битрейт : 1197 Кбит/сек
Ширина : 720 пикселей
Высота : 400 пикселей
Соотношение сторон : 16:9
Частота кадров : 25,000 кадров/сек
Цветовое пространство : YUV
Субдискретизация насыщенности : 4:2:0
Битовая глубина : 8 бит
Тип развёртки : Прогрессивная
Метод сжатия : С потерями
Бит/(Пиксели*Кадры) : 0.166
Размер потока : 690 Мбайт (90%)
Библиотека кодирования : XviD 1.2.1 (UTC 2008-12-04)
Аудио
Идентификатор : 1
Формат : MPEG Audio
Версия формата : Version 1
Профиль формата : Layer 3
Режим : Joint stereo
Расширение режима : MS Stereo
Идентификатор кодека : 55
Идентификатор кодека/Подсказка : MP3
Продолжительность : 1 ч. 20 м.
Вид битрейта : Постоянный
Битрейт : 128 Кбит/сек
Каналы : 2 канала
Частота : 44,1 КГц
Метод сжатия : С потерями
Размер потока : 73,8 Мбайт (10%)
Выравнивание : Разделение по промежуткам
Продолжительность промежутка : 40 мс. (1,00 видеокадр)
Время предзагрузки промежутка : 500 мс.
Библиотека кодирования : LAME3.99
Настройки программы : -m j -V 4 -q 2 -lowpass 17 -b 128
Скриншоты:-Время раздачи:Круглосуточно до 10 скачавших
Яндекс.Метрика
Рейтинг@Mail.ru