Полина Гагарина - Спектакль окончен [2012 г.] (Pop) [HDTVRip, 1080p]

 

Создавать темы 05-Янв-2015 05:32

-Полина Гагарина - Спектакль окончен-- Год выпуска: 2012 г.
Страна: Россия
Жанр: Pop
Режиссер: Сергей Солодкий
Студия: Velvet Music
Продолжительность: 00:03:59-Качество видео: HDTVRip
Контейнер: MP4
Стандарт разрешения: 1080p
Видео кодек: H.264
Аудио кодек: AAC
Видео: 1920x1080, 16,7 Mbps, 25,000 fps, 0,323 bit/pic
Аудио: AAC, 48,0 kHz, 317 kbps, 2 Ch
-

Media Info

Общее
Полное имя                               : D:\Torrent files\Полина Гагарина - спектакль окончен 2012 (R.G.Music Bay).mp4
Формат                                   : MPEG-4
Профиль формата                          : Base Media / Version 2
Идентификатор кодека                     : mp42
Размер файла                             : 486 Мбайт
Продолжительность                        : 3 м. 59 с.
Режим общего битрейта                    : Переменный
Общий поток                              : 17,1 Мбит/сек
Дата кодирования                         : UTC 2014-03-09 18:47:12
Дата пометки                             : UTC 2014-03-09 18:47:43
©TIM                                     : 00:00:00:00
©TSC                                     : 25
©TSZ                                     : 1
Видео
Идентификатор                            : 1
Формат                                   : AVC
Формат/Информация                        : Advanced Video Codec
Профиль формата                          : [email protected]
Параметр CABAC формата                   : Да
Параметр ReFrames формата                : 3 кадра
Идентификатор кодека                     : avc1
Идентификатор кодека/Информация          : Advanced Video Coding
Продолжительность                        : 3 м. 59 с.
Битрейт                                  : 16,7 Мбит/сек
Ширина                                   : 1920 пикселей
Высота                                   : 1080 пикселей
Соотношение сторон                       : 16:9
Режим частоты кадров                     : Постоянный
Частота кадров                           : 25,000 кадров/сек
Стандарт вещания                         : PAL
Цветовое пространство                    : YUV
Субдискретизация насыщенности            : 4:2:0
Битовая глубина                          : 8 бит
Тип развёртки                            : Прогрессивная
Бит/(Пиксели*Кадры)                      : 0.323
Размер потока                            : 477 Мбайт (98%)
Язык                                     : English
Дата кодирования                         : UTC 2014-03-09 18:47:12
Дата пометки                             : UTC 2014-03-09 18:47:12
colour_range                             : Limited
Аудио
Идентификатор                            : 2
Формат                                   : AAC
Формат/Информация                        : Advanced Audio Codec
Профиль формата                          : LC
Идентификатор кодека                     : 40
Продолжительность                        : 3 м. 59 с.
Продолжительность оригинала              : 3 м. 59 с.
Вид битрейта                             : Переменный
Битрейт                                  : 317 Кбит/сек
Максимальный битрейт                     : 341 Кбит/сек
Каналы                                   : 2 канала
Расположение каналов                     : Front: L R
Частота                                  : 48,0 КГц
Метод сжатия                             : С потерями
Размер потока                            : 9,05 Мбайт (2%)
Размер потока оригинала                  : 9,05 Мбайт (2%)
Язык                                     : English
Дата кодирования                         : UTC 2014-03-09 18:47:12
Дата пометки                             : UTC 2014-03-09 18:47:12
mdhd_Duration                            : 239211

Скриншоты

--
Яндекс.Метрика
Рейтинг@Mail.ru