Джейми Маркс мёртв / Jamie Marks Is Dead (Картер Смит / Carter Smith) [2014 г., Драма, WEB-DLRip] VO

 

Создавать темы 05-Янв-2015 05:27

-Джейми Маркс мёртв / Jamie Marks Is Dead-- Производство: США
Год выпуска: 2014 г.
Жанр: Драма
Продолжительность: 01:41:29
Мировая премьера: 19 января 2014
Перевод: Любительский (одноголосый, закадровый) [[Andi]
Режиссер: Картер Смит / Carter Smith-В ролях: Джуди Грир, Лив Тайлер, Морган Сэйлор, Камерон Монахэн, Ной Сильвер, Мэдисен Бити, Эрин Вильхельми, Ронен Рубеинштейн, Бретт ДельБуоно, Лиззи ДеКлемент-Описание: Зимой в небольшом городке на берегу реки находят тело юного Джейми Маркса. Адам МакКормик, пятнадцатилетний школьник, звезда местной команды по бегу, неожиданно очаровывается Джейми, мальчиком, которого толком даже никто не знал и с кем почти никто не общался.
Когда призрак Джейми начинает являться Адаму и Грейси, однокласснице, обнаружившей тело, Адам оказывается словно между двух миров.-
Качество видео: WEB-DLRip
Контейнер: AVI
Видео кодек: XviD
Аудио кодек: AC3
Видео: MPEG-4 Visual at 1200 Кбит/сек : 720 x 304 at 23.976 fps Бит/Пиксели: 0.229
Аудио: AC-3 at 448 Кбит/сек : 6 каналов, 48,0 КГц
Cубтитры: отсутствуют

Media Info

Общее
Полное имя : D:\µTorrent\razda4a\Jamie.Marks.Is.Dead_2014.avi
Формат : AVI
Формат/Информация : Audio Video Interleave
Размер файла : 1,17 Гбайт
Продолжительность : 1 ч. 41 м.
Общий поток : 1657 Кбит/сек
Программа кодирования : VirtualDubMod 1.5.10.3 | www.virtualdub-fr.org || (build 2550/release)
Библиотека кодирования : VirtualDubMod build 2550/release
Видео
Идентификатор : 0
Формат : MPEG-4 Visual
Профиль формата : Advanced [email protected]
Параметр BVOP формата : 1
Параметр QPel формата : Нет
Параметр GMC формата : Без точки перехода
Параметр матрицы формата : Default (MPEG)
Идентификатор кодека : DX50
Идентификатор кодека/Подсказка : DivX 5
Продолжительность : 1 ч. 41 м.
Битрейт : 1200 Кбит/сек
Ширина : 720 пикселей
Высота : 304 пикселя
Соотношение сторон : 2,35:1
Частота кадров : 23,976 кадра/сек
Цветовое пространство : YUV
Субдискретизация насыщенности : 4:2:0
Битовая глубина : 8 бит
Тип развёртки : Прогрессивная
Метод сжатия : С потерями
Бит/(Пиксели*Кадры) : 0.229
Размер потока : 871 Мбайт (72%)
Библиотека кодирования : XviD 1.2.1 (UTC 2008-12-04)
Аудио
Идентификатор : 1
Формат : AC-3
Формат/Информация : Audio Coding 3
Расширение режима : CM (complete main)
Параметр Endianness формата : Big
Идентификатор кодека : 2000
Продолжительность : 1 ч. 41 м.
Вид битрейта : Постоянный
Битрейт : 448 Кбит/сек
Каналы : 6 каналов
Расположение каналов : Front: L C R, Side: L R, LFE
Частота : 48,0 КГц
Битовая глубина : 16 бит
Метод сжатия : С потерями
Размер потока : 325 Мбайт (27%)
Выравнивание : Разделение по промежуткам
Продолжительность промежутка : 42 мс. (1,00 видеокадр)
Время предзагрузки промежутка : 500 мс.

Скриншоты

Яндекс.Метрика
Рейтинг@Mail.ru