Драконы Нью-Йорка / Revenge of the Green Dragons (Вэй Кеунг Лау / Wei Keung Lau, Эндрю Лу / Andrew Lu) [2014 г., боевик, драма, криминал, HDRip] DVO Sub (Eng)

 

Создавать темы 05-Янв-2015 05:13

-Драконы Нью-Йорка / Revenge of the Green Dragons-- Производство: США, Гонконг
Год выпуска: 2014 г.
Жанр: боевик, драма, криминал
Продолжительность: 01:34:50
Мировая премьера: 10 сентября 2014
Российская премьера: 18 сентября 2014
Перевод: Любительский (двухголосый, закадровый) [Студия Пиратского дубляжа]
Режиссер: Вэй Кеунг Лау / Wei Keung Lau, Эндрю Лу / Andrew Lu-В ролях: Джастин Чон, Кевин Ву, Гарри Шам мл., Рэй Лиотта, Джин Онг, Сюя Чанг, Карл Ли, Леонард Ву, Евгения Йуан, Селия Ау-Описание: История двух братьев-эмигрантов Сонни и Стивена, отправившихся в конце 80-х годов в Нью-Йорк за американской мечтой.
В поисках лучшей жизни они влились в банду Чайна-тауна «Зеленые драконы». Делая успехи на новом поприще, Сонни опрометчиво влюбляется «не в ту» девушку, и родные братья становятся злейшими врагами. Сонни начинает мстить своей банде, которая взрастила его и сделала тем, кем он является. Американская мечта братьев сбывается, но действительно ли они хотели этого?-
Качество видео: HDRip
Контейнер: AVI
Видео кодек: XviD
Аудио кодек: AC3
Видео: MPEG-4 Visual at 1670 Кбит/сек : 720 x 304 at 23.976 fps Бит/Пиксели : 0.318
Аудио: AC-3 at 384 Кбит/сек : 6 каналов, 48,0 КГц
Cубтитры: английские(не отключаемые)

Media Info

Общее
Полное имя : D:\µTorrent\razda4a\Dtakony.New.Yorka.2014.P.HDRp.1400MB.avi
Формат : AVI
Формат/Информация : Audio Video Interleave
Размер файла : 1,37 Гбайт
Продолжительность : 1 ч. 34 м.
Общий поток : 2063 Кбит/сек
Программа кодирования : VirtualDubMod 1.5.10.2 (build 2540/release)
Библиотека кодирования : VirtualDubMod build 2540/release
Видео
Идентификатор : 0
Формат : MPEG-4 Visual
Профиль формата : Advanced [email protected]
Параметр BVOP формата : 2
Параметр QPel формата : Нет
Параметр GMC формата : Без точки перехода
Параметр матрицы формата : Default (MPEG)
Идентификатор кодека : XVID
Идентификатор кодека/Подсказка : XviD
Продолжительность : 1 ч. 34 м.
Битрейт : 1670 Кбит/сек
Ширина : 720 пикселей
Высота : 304 пикселя
Соотношение сторон : 2,35:1
Частота кадров : 23,976 кадра/сек
Цветовое пространство : YUV
Субдискретизация насыщенности : 4:2:0
Битовая глубина : 8 бит
Тип развёртки : Прогрессивная
Метод сжатия : С потерями
Бит/(Пиксели*Кадры) : 0.318
Размер потока : 1,11 Гбайт (81%)
Библиотека кодирования : XviD 1.2.1 (UTC 2008-12-04)
Аудио
Идентификатор : 1
Формат : AC-3
Формат/Информация : Audio Coding 3
Расширение режима : CM (complete main)
Параметр Endianness формата : Big
Идентификатор кодека : 2000
Продолжительность : 1 ч. 34 м.
Вид битрейта : Постоянный
Битрейт : 384 Кбит/сек
Каналы : 6 каналов
Расположение каналов : Front: L C R, Side: L R, LFE
Частота : 48,0 КГц
Битовая глубина : 16 бит
Метод сжатия : С потерями
Размер потока : 260 Мбайт (19%)
Выравнивание : Разделение по промежуткам
Продолжительность промежутка : 42 мс. (1,00 видеокадр)
Время предзагрузки промежутка : 500 мс.

Скриншоты

Яндекс.Метрика
Рейтинг@Mail.ru