Последний из лучших / Yat ku chan dik mou lam (Тедди Чан / Teddy Chan) [2014 г., Боевик, триллер, BDRip, 720p] VO (Вячеслав Замез)

 

Создавать темы 05-Янв-2015 05:12

-Последний из лучших / Yat ku chan dik mou lam-- Производство: Китай, Гонконг
Год выпуска: 2014 г.
Жанр: Боевик, триллер
Продолжительность: 01:40:02
Мировая премьера: 12 октября 2014
Перевод: Любительский (одноголосый, закадровый) [Вячеслав Замез]
Оригинальный аудиопоток: Китайский
Режиссер: Тедди Чан / Teddy Chan-В ролях: Донни Ен, Чарли Енг, Ван Баоцян, Бин Бай, Дип Нг, Алекс Фонг, Юй Кан, Фан Сю-Вонг, Юй Син, Билли Чан-Описание: Бывший полицейский инструктор по боевым искусствам заключен в тюрьму после того, как случайно убил человека. Когда объявляется серийный убийца специализирующийся на мастерах боевых искусств, он предлагает помощь полиции в обмен на свою свободу.-
Качество видео: BDRip
Контейнер: MKV
Стандарт разрешения: 720p
Видео кодек: H.264
Аудио кодек: AC3
Видео: 1280x536, 24.000 fps, 3093 Kbps, 0.188 bt/px
Аудио: AC-3, 448 Kbps, 6 ch, 48.0 KHz Rus Замез
Аудио: AC-3, 448 Kbps, 6 ch, 48.0 KHz Chi Original
Cубтитры: отсутствуют

Media Info

J:\Kung Fu Jungle_[Pirat.ca].torrent.mkv
General
Unique ID : 192239709937900219079616612429646723703 (0x90A005799DD8AA3EA0AEB5E367EAFA77)
Complete name : J:\Kung Fu Jungle_[Pirat.ca].torrent.mkv
Format : Matroska
Format version : Version 1
File size : 2.84 GiB
Duration : 1h 40mn
Overall bit rate : 4 070 Kbps
Movie name : Release Group CINEMANIA
Encoded date : UTC 2015-01-04 18:54:48
Writing application : mkvmerge v2.5.3 ('Boogie') built on Mar 7 2009 15:00:41
Writing library : libebml v0.7.7 + libmatroska v0.8.1
Video #1
ID : 1
Format : AVC
Format/Info : Advanced Video Codec
Format profile : [email protected]
Format settings, CABAC : Yes
Format settings, ReFrames : 12 frames
Codec ID : V_MPEG4/ISO/AVC
Duration : 1h 40mn
Bit rate : 3 093 Kbps
Width : 1 280 pixels
Height : 536 pixels
Display aspect ratio : 2.40:1
Frame rate mode : Constant
Frame rate : 24.000 fps
Color space : YUV
Chroma subsampling : 4:2:0
Bit depth : 8 bits
Scan type : Progressive
Bits/(Pixel*Frame) : 0.188
Stream size : 2.16 GiB (76%)
Writing library : x264 core 130 r2273 b3065e6
Encoding settings : cabac=1 / ref=12 / deblock=1:0:0 / analyse=0x3:0x133 / me=umh / subme=11 / psy=1 / psy_rd=1.00:0.15 / mixed_ref=1 / me_range=32 / chroma_me=1 / trellis=2 / 8x8dct=1 / cqm=0 / deadzone=21,11 / fast_pskip=1 / chroma_qp_offset=-3 / threads=6 / lookahead_threads=1 / sliced_threads=0 / nr=0 / decimate=1 / interlaced=0 / bluray_compat=0 / constrained_intra=0 / bframes=8 / b_pyramid=2 / b_adapt=2 / b_bias=0 / direct=1 / weightb=1 / open_gop=0 / weightp=2 / keyint=250 / keyint_min=23 / scenecut=40 / intra_refresh=0 / rc_lookahead=50 / rc=crf / mbtree=1 / crf=18.0 / qcomp=0.60 / qpmin=0 / qpmax=51 / qpstep=4 / ip_ratio=1.40 / aq=1:1.00
Language : Chinese
Default : Yes
Forced : No
Audio #2
ID : 2
Format : AC-3
Format/Info : Audio Coding 3
Mode extension : CM (complete main)
Format settings, Endianness : Big
Codec ID : A_AC3
Duration : 1h 40mn
Bit rate mode : Constant
Bit rate : 448 Kbps
Channel(s) : 6 channels
Channel positions : Front: L C R, Side: L R, LFE
Sampling rate : 48.0 KHz
Bit depth : 16 bits
Compression mode : Lossy
Stream size : 321 MiB (11%)
Title : VO Вячеслав Замез
Language : Russian
Default : Yes
Forced : No
Audio #3
ID : 3
Format : AC-3
Format/Info : Audio Coding 3
Mode extension : CM (complete main)
Format settings, Endianness : Big
Codec ID : A_AC3
Duration : 1h 40mn
Bit rate mode : Constant
Bit rate : 448 Kbps
Channel(s) : 6 channels
Channel positions : Front: L C R, Side: L R, LFE
Sampling rate : 48.0 KHz
Bit depth : 16 bits
Compression mode : Lossy
Stream size : 321 MiB (11%)
Language : Chinese
Default : No
Forced : No

Скриншоты

Яндекс.Метрика
Рейтинг@Mail.ru