[ Сегодня на трекере фрилич! Идет свободное скачивание без начисления Download ]

Гриффины / Family Guy / Сезон: 13 / Серии: 1-6 из ? (Сет Макфарлейн / Seth MacFarlane) [2014 г., мультфильм, комедия, WEB-DLRip] MVO (FiliZa Studio) + Original (Eng) (обновляемая)

 

Создавать темы 05-Янв-2015 05:11

-Гриффины / Family Guy- Производство: США
Жанр: мультфильм, комедия
Год выпуска: 2014 г.
Продолжительность: 00:40:00
Мировая премьера: 28 сентября 2014
Перевод: Профессиональный (многоголосый, закадровый) [FiliZa Studio]
Оригинальный аудиопоток: английский-Режиссер: Сет Макфарлейн / Seth MacFarlane
Роли озвучивали: Сет МакФарлейн, Алекс Борштейн, Сет Грин, Мила Кунис, Майк Генри-Описание: Гриффины — американский комедийный мультсериал о жизни обыкновенной американской семьи, проживающей в Куахоге, вымышленном пригороде Провиденса, столицы Род-Айленда. Сериал носит в себе элементы сатиры, в которой высмеиваются недостатки американской действительности, в том числе внешняя и внутренняя политика США, расовая дискриминация и другие проблемы.-Сэмпл КиноПоиск-Качество видео: WEB-DLRip
Контейнер: AVI
Видео кодек: XviD
Аудио кодек: MP3
Видео: 640x360 (1.78:1), 23.970 fps, XviD build 50 ~1422 kbps avg, 0.26 bit/pixel
Аудио: 44.100 kHz, MPEG Layer 3, 2 ch, ~128.00 kbps avg
Аудио #2: 44.100 kHz, MPEG Layer 3, 2 ch, ~128.00 kbps avg
Cубтитры: отсутствуют

Media Info

General
Complete name : D:\Family Guy - Season 13 [FiliZa Studio]\Episode 1.avi
Format : AVI
Format/Info : Audio Video Interleave
File size : 529 MiB
Duration : 43mn 42s
Overall bit rate : 1 693 Kbps
Writing application : VirtualDubMod 1.5.10.2 (build 2540/release)
Writing library : VirtualDubMod build 2540/release
Video
ID : 0
Format : xvid
Codec ID : xvid
Duration : 43mn 42s
Bit rate : 1 423 Kbps
Width : 640 pixels
Height : 360 pixels
Display aspect ratio : 16:9
Frame rate : 23.976 fps
Bits/(Pixel*Frame) : 0.258
Stream size : 445 MiB (84%)
Audio #1
ID : 1
Format : MPEG Audio
Format version : Version 1
Format profile : Layer 3
Mode : Joint stereo
Mode extension : MS Stereo
Codec ID : 55
Codec ID/Hint : MP3
Duration : 43mn 42s
Bit rate mode : Constant
Bit rate : 128 Kbps
Channel(s) : 2 channels
Sampling rate : 44.1 KHz
Compression mode : Lossy
Delay relative to video : 26ms
Stream size : 40.0 MiB (8%)
Alignment : Split accross interleaves
Interleave, duration : 42 ms (1.00 video frame)
Interleave, preload duration : 500 ms
Audio #2
ID : 2
Format : MPEG Audio
Format version : Version 1
Format profile : Layer 3
Mode : Joint stereo
Mode extension : MS Stereo
Codec ID : 55
Codec ID/Hint : MP3
Duration : 43mn 42s
Bit rate mode : Constant
Bit rate : 128 Kbps
Channel(s) : 2 channels
Sampling rate : 44.1 KHz
Compression mode : Lossy
Stream size : 40.0 MiB (8%)
Alignment : Split accross interleaves
Interleave, duration : 42 ms (1.00 video frame)
Interleave, preload duration : 500 ms

Скриншоты

Внимание! Раздача ведётся путём добавления новых серий!

Как докачать новую серию

Раздача ведётся путём добавления новых серий; при каждом добавлении создаётся новый торрент. Чтобы начать докачку новой серии, пользователям необходимо сделать следующее:
1. Остановить скачивание,
2. Удалить старый торрент у себя из клиента (старые серии удалять не надо),
3. Скачать новый торрент и запустить его у себя в клиенте вместо старого, при этом указать клиенту путь в старую папку куда и должно происходить скачивание новых серий.
Ваш клиент при этом должен произвести хеширование (проверку) старой папки (если не производит сам - помогите ему сделать это), и будет докачивать только те серии которых у вас ещё нет. Старые серии при этом не удаляются, а продолжают раздаваться!
Eсли вы уже удалили старые серии, то предотвратить повторную закачку старых серий можно, отжав галочку в соответствующих местах при запуске нового торрента. По возможности, желательно не удалять старые серии как можно дольше чтобы релизёр не столько продолжал раздавать старые серии, а смог сконцентрироваться на новых.
Добавлен 6 эпизод
Яндекс.Метрика
Рейтинг@Mail.ru