[ Сегодня на трекере фрилич! Идет свободное скачивание без начисления Download ]

Флот МакХэйла / McHale's Navy (Брайан Спайсер / Bryan Spicer) [1997 г., Боевик, комедия, DVDRip-AVC] AVO (Санаев, Живов) + DVO (DVO, Королёв и леди) + Original (Eng)

 

Создавать темы 04-Янв-2015 16:45

Флот МакХэйла / McHale's Navy
Год выпуска: 1997
Производство: США
Жанр: Боевик, комедия
Продолжительность: 01:48:49
Перевод: Авторский (одноголосый, закадровый) Павел Санаев
Перевод: Авторский (одноголосый, закадровый) Юрий Живов
Перевод: Профессиональный (двухголосый, закадровый) DVO
Перевод: Профессиональный (двухголосый, закадровый) Владимир Королёв и леди
Оригинальный аудиопоток: английский
Субтитры: отсутствуют
Режиссер: Брайан Спайсер / Bryan Spicer
В ролях: Том Арнольд, Дин Стокуэлл, Дебра Мессинг, Дэвид Алан Грайер, Тим Карри, Эрнест Боргнайн, Брюс Кэмпбелл, Френч Стюарт, Дэнтон Стоун, Брайан Хэйли, Хенри Чо, Энтони Джесси Крус, Онорато Магалони, Гильермо Риос, Эдуардо Лопес Рохас, Том Эйерс, Томми Чонг
Описание: Квинтон МакХэйл, непробиваемо спокойный отставной капитан флота. Ленивое времяпрепровождение заканчивается, когда старый знакомый МакХэйла начинает угрожать его любимой базе на острове. Капитан снова надевает свой боевой мундир и возглавляет команду неудачников, принимая участие в головокружительных маневрах на страх врагам.
КиноПоиск
Качество видео: DVDRip-AVC
Контейнер: MKV
Видео кодек: H.264
Аудио кодек: AC3
Видео: 720x384, 23.976 fps, 2133 Kbps, 0.322 bt/px
Аудио : AC-3, 192 Kbps, 2 ch, 48.0 KHz Rus Санаев
Аудио : AC-3, 192 Kbps, 2 ch, 48.0 KHz Rus Живов
Аудио : AC-3, 192 Kbps, 2 ch, 48.0 KHz Rus DVO
Аудио : AC-3, 448 Kbps, 6 ch, 48.0 KHz Rus Королёв и леди
Аудио : AC-3, 448 Kbps, 6 ch, 48.0 KHz Eng Original

Media Info

H:\КИНОФИЛЬМЫ\убрать перископ 2.mkv
General
Unique ID : 179243920036262586868859645981735112522 (0x86D91F903E2198DD9A19BBD1CD39CF4A)
Complete name : H:\КИНОФИЛЬМЫ\убрать перископ 2.mkv
Format : Matroska
Format version : Version 1
File size : 2.74 GiB
Duration : 1h 48mn
Overall bit rate : 3 601 Kbps
Encoded date : UTC 2015-01-03 09:19:38
Writing application : mkvmerge v2.5.3 ('Boogie') built on Mar 7 2009 15:00:41
Writing library : libebml v0.7.7 + libmatroska v0.8.1
Video #1
ID : 1
Format : AVC
Format/Info : Advanced Video Codec
Format profile : [email protected]
Format settings, CABAC : Yes
Format settings, ReFrames : 9 frames
Codec ID : V_MPEG4/ISO/AVC
Duration : 1h 48mn
Bit rate : 2 133 Kbps
Width : 720 pixels
Height : 384 pixels
Display aspect ratio : 1.85:1
Frame rate mode : Constant
Frame rate : 23.976 fps
Color space : YUV
Chroma subsampling : 4:2:0
Bit depth : 8 bits
Scan type : Progressive
Bits/(Pixel*Frame) : 0.322
Stream size : 1.56 GiB (57%)
Writing library : x264 core 130 r2273 b3065e6
Encoding settings : cabac=1 / ref=9 / deblock=1:-3:-3 / analyse=0x3:0x133 / me=umh / subme=11 / psy=1 / psy_rd=1.00:0.10 / mixed_ref=1 / me_range=24 / chroma_me=1 / trellis=2 / 8x8dct=1 / cqm=0 / deadzone=21,11 / fast_pskip=0 / chroma_qp_offset=-3 / threads=6 / lookahead_threads=1 / sliced_threads=0 / nr=0 / decimate=0 / interlaced=0 / bluray_compat=0 / constrained_intra=0 / bframes=8 / b_pyramid=2 / b_adapt=2 / b_bias=0 / direct=3 / weightb=1 / open_gop=0 / weightp=2 / keyint=250 / keyint_min=23 / scenecut=40 / intra_refresh=0 / rc_lookahead=50 / rc=abr / mbtree=1 / bitrate=2133 / ratetol=1.0 / qcomp=0.60 / qpmin=0 / qpmax=51 / qpstep=4 / ip_ratio=1.40 / aq=1:1.00
Language : English
Default : Yes
Forced : No
Audio #2
ID : 2
Format : AC-3
Format/Info : Audio Coding 3
Mode extension : CM (complete main)
Format settings, Endianness : Big
Codec ID : A_AC3
Duration : 1h 48mn
Bit rate mode : Constant
Bit rate : 192 Kbps
Channel(s) : 2 channels
Channel positions : Front: L R
Sampling rate : 48.0 KHz
Bit depth : 16 bits
Compression mode : Lossy
Stream size : 149 MiB (5%)
Title : AVO Санаев
Language : Russian
Default : Yes
Forced : No
Audio #3
ID : 3
Format : AC-3
Format/Info : Audio Coding 3
Mode extension : CM (complete main)
Format settings, Endianness : Big
Codec ID : A_AC3
Duration : 1h 48mn
Bit rate mode : Constant
Bit rate : 192 Kbps
Channel(s) : 2 channels
Channel positions : Front: L R
Sampling rate : 48.0 KHz
Bit depth : 16 bits
Compression mode : Lossy
Stream size : 149 MiB (5%)
Title : AVO Живов
Language : Russian
Default : No
Forced : No
Audio #4
ID : 4
Format : AC-3
Format/Info : Audio Coding 3
Mode extension : CM (complete main)
Format settings, Endianness : Big
Codec ID : A_AC3
Duration : 1h 48mn
Bit rate mode : Constant
Bit rate : 192 Kbps
Channel(s) : 2 channels
Channel positions : Front: L R
Sampling rate : 48.0 KHz
Bit depth : 16 bits
Compression mode : Lossy
Stream size : 149 MiB (5%)
Title : DVO
Language : Russian
Default : No
Forced : No
Audio #5
ID : 5
Format : AC-3
Format/Info : Audio Coding 3
Mode extension : CM (complete main)
Format settings, Endianness : Big
Codec ID : A_AC3
Duration : 1h 48mn
Bit rate mode : Constant
Bit rate : 448 Kbps
Channel(s) : 6 channels
Channel positions : Front: L C R, Side: L R, LFE
Sampling rate : 48.0 KHz
Bit depth : 16 bits
Compression mode : Lossy
Stream size : 349 MiB (12%)
Title : DVO Королёв и леди
Language : Russian
Default : No
Forced : No
Audio #6
ID : 6
Format : AC-3
Format/Info : Audio Coding 3
Mode extension : CM (complete main)
Format settings, Endianness : Big
Codec ID : A_AC3
Duration : 1h 48mn
Bit rate mode : Constant
Bit rate : 448 Kbps
Channel(s) : 6 channels
Channel positions : Front: L C R, Side: L R, LFE
Sampling rate : 48.0 KHz
Bit depth : 16 bits
Compression mode : Lossy
Stream size : 349 MiB (12%)
Language : English
Default : No
Forced : No

log x.264

x264 [info]: frame I:1328  Avg QP:15.40  size: 47923
x264 [info]: frame P:36660 Avg QP:18.81 size: 22882
x264 [info]: frame B:118552 Avg QP:22.56 size: 7013
x264 [info]: consecutive B-frames: 1.7% 2.0% 8.2% 43.5% 21.1% 17.9% 2.5% 2.1% 0.9%
x264 [info]: mb I I16..4: 6.8% 77.1% 16.1%
x264 [info]: mb P I16..4: 0.8% 20.8% 1.9% P16..4: 24.5% 30.0% 15.8% 3.0% 0.4% skip: 2.7%
x264 [info]: mb B I16..4: 0.1% 3.0% 0.2% B16..8: 32.3% 23.0% 4.0% direct:10.1% skip:27.4% L0:33.0% L1:36.4% BI:30.6%
x264 [info]: final ratefactor: 17.02
x264 [info]: 8x8 transform intra:88.1% inter:59.0%
x264 [info]: direct mvs spatial:100.0% temporal:0.0%
x264 [info]: coded y,uvDC,uvAC intra: 94.9% 81.2% 48.2% inter: 37.8% 30.6% 9.6%
x264 [info]: i16 v,h,dc,p: 23% 16% 14% 47%
x264 [info]: i8 v,h,dc,ddl,ddr,vr,hd,vl,hu: 12% 14% 6% 8% 10% 10% 12% 12% 16%
x264 [info]: i4 v,h,dc,ddl,ddr,vr,hd,vl,hu: 11% 12% 4% 8% 14% 13% 14% 10% 13%
x264 [info]: i8c dc,h,v,p: 29% 31% 20% 19%
x264 [info]: Weighted P-Frames: Y:5.7% UV:1.6%
x264 [info]: ref P L0: 42.1% 13.4% 20.9% 6.2% 5.8% 3.4% 3.7% 1.9% 2.3% 0.3% 0.0%
x264 [info]: ref B L0: 85.4% 8.4% 2.5% 1.4% 0.9% 0.7% 0.4% 0.2%
x264 [info]: ref B L1: 97.0% 3.0%
x264 [info]: kb/s:2124.57
x264 [total]: encoded 156540 frames, 9.84 fps, 2124.57 kb/s

Скриншоты

Яндекс.Метрика
Рейтинг@Mail.ru