Mark Medlock & Dieter Bohlen - You Can Get It (2007) Maxi-Single [FLAC (image+.cue)|Lossless]<Pop>

 

Создавать темы 04-Янв-2015 14:41

Mark Medlock & Dieter Bohlen - You Can Get It (2007) Maxi-Single- Год: 29 Jun 2007
Страна: Germany
Лейбл: Columbia ‎- 88697 12585 2
Формат: CD, Maxi-Single, Enhanced
Жанр: Pop
Продолжительность: 00:18:17
Кодек: FLAC
Тип рипа: image+.cue
Битрейт: Lossless-Треклист:
1. You Can Get It (Single Version) 3:33
2. You Can Get It (Modern Mix) 3:33
3. You Can Get It (Karaoke Version) 3:33
Bonus Tracks
4. Love Is A Game 3:37
5. Why This Kiss 3:45

Отчёт ЕАС&#58;

Exact Audio Copy V1.0 beta 3 from 29. August 2011
EAC extraction logfile from 30. October 2012, 19:45
Mark Medlock & Dieter Bohlen / You can get it
Used drive  : Optiarc DVD RW AD-7283S   Adapter: 3  ID: 1
Read mode               : Secure
Utilize accurate stream : Yes
Defeat audio cache      : Yes
Make use of C2 pointers : No
Read offset correction                      : 48
Overread into Lead-In and Lead-Out          : No
Fill up missing offset samples with silence : Yes
Delete leading and trailing silent blocks   : No
Null samples used in CRC calculations       : Yes
Used interface                              : Native Win32 interface for Win NT & 2000
Used output format : Internal WAV Routines
Sample format      : 44.100 Hz; 16 Bit; Stereo
TOC of the extracted CD
     Track |   Start  |  Length  | Start sector | End sector
    ---------------------------------------------------------
        1  |  0:00.00 |  3:37.70 |         0    |    16344
        2  |  3:37.70 |  3:37.66 |     16345    |    32685
        3  |  7:15.61 |  3:37.72 |     32686    |    49032
        4  | 10:53.58 |  3:39.46 |     49033    |    65503
        5  | 14:33.29 |  3:48.41 |     65504    |    82644
        6  | 20:53.70 |  7:45.44 |     94045    |   128963
Range status and errors
Selected range
     Filename C:\Mark Medlock & Dieter Bohlen - You can get it.wav
     Peak level 99.8 %
     Extraction speed 5.5 X
     Range quality 99.9 %
     Test CRC AE49D31B
     Copy CRC AE49D31B
     Copy OK
No errors occurred
AccurateRip summary
Track  1  accurately ripped (confidence 2)  [9177A085]  (AR v1)
Track  2  accurately ripped (confidence 3)  [9E40656B]  (AR v1)
Track  3  accurately ripped (confidence 2)  [27472D07]  (AR v1)
Track  4  accurately ripped (confidence 3)  [25BF5166]  (AR v1)
Track  5  accurately ripped (confidence 3)  [AD07D9EB]  (AR v1)
All tracks accurately ripped
End of status report
==== Log checksum 60E7204749056D6989B2C66BC9AB30521C0925DB606CFAD0DC2C5905022CA46D ====
-
Яндекс.Метрика
Рейтинг@Mail.ru