Алёна Свиридова - Розовый фламинго [1994 г.] (Pop) [TVRip, 576p]

 

Создавать темы 04-Янв-2015 06:39

-Алёна Свиридова - Розовый фламинго-- Год выпуска: 1994 г.
Страна: Россия
Жанр: Pop
Продолжительность: 00:04:36-Качество видео: TVRip
Контейнер: TS
Видео кодек: MPEG Video
Аудио кодек: MPEG Audio
Видео: 720Х576,25.000 fps,4526 Kbps,0.436 bit/pixel
Аудио: Mpeg1, 2ch,48.0KHz,192 Kbps-

Media Info

Общее
Полное имя : K:\Recordings\Pinc flamingo.ts
Формат : MPEG-TS
Профиль формата : No PAT/PMT
Размер файла : 164 Мбайт
Продолжительность : 4 м. 36 с.
Режим общего битрейта : Переменный
Общий поток : 4965 Кбит/сек
Видео
Идентификатор : 303 (0x12F)
Формат : MPEG Video
Версия формата : Version 2
Профиль формата : [email protected]
Параметр BVOP формата : Да
Параметр матрицы формата : Выборочная
Параметр GOP формата : Variable
Продолжительность : 4 м. 36 с.
Вид битрейта : Переменный
Битрейт : 4526 Кбит/сек
Максимальный битрейт : 15,0 Мбит/сек
Ширина : 720 пикселей
Высота : 576 пикселей
Соотношение сторон : 4:3
Частота кадров : 25,000 кадров/сек
Стандарт вещания : PAL
Цветовое пространство : YUV
Субдискретизация насыщенности : 4:2:0
Битовая глубина : 8 бит
Тип развёртки : Чересстрочная
Порядок развёртки : Верхнее поле первое
Метод сжатия : С потерями
Бит/(Пиксели*Кадры) : 0.436
Размер потока : 149 Мбайт (91%)
Аудио
Идентификатор : 403 (0x193)
Формат : MPEG Audio
Версия формата : Version 1
Профиль формата : Layer 2
Продолжительность : 4 м. 36 с.
Вид битрейта : Постоянный
Битрейт : 192 Кбит/сек
Каналы : 2 канала
Частота : 48,0 КГц
Метод сжатия : С потерями
Задержка видео : 11 мс.
Размер потока : 6,33 Мбайт (4%)

Скриншоты

Яндекс.Метрика
Рейтинг@Mail.ru