VA - Mozart Master Mix (1997) [FLAC (image+.cue)|Lossless]<Rock, Classical>

 

Создавать темы 03-Янв-2015 19:20

VA - Mozart Master Mix (1997)- Год: 1997
Лейбл: Delos Records (B000003OZS)
Жанр: Rock, Classical
Продолжительность: 01:13:35
Кодек: FLAC
Тип рипа: image+.cue
Битрейт: Lossless-Треклист:
01. Bobby Summerfield - Carmina
Carl Orff / Bobby Summerfield
02. Kathy Theil - Diadema (Hildegard Hypno-Trance)
Paul Rabjohns
03. Greg Pagani - Prodigy Groove (Mozart Master Mix)
Wolfgang Amadeus Mozart / Greg Pagani
04. Greg St. Regis / Marco St. Regis - Firebird
Igor Stravinsky
05. Bobby Summerfield - Vivalogy (Seasons Mix)
Bobby Summerfield / Antonio Vivaldi
06. Greg Pagani - Bach's Humana
Johann Sebastian Bach / Greg Pagani
07. Greg Pagani - Moonlight
Ludwig van Beethoven / Greg Pagani
08. Bobby Summerfield - Nightmare on the Dance Floor
Modest Mussorgsky / Bobby Summerfield
09. Kathy Theil - Diadema (Radio Edit)
Paul Rabjohns
10. Greg St. Regis / Marco St. Regis - Firebird (Radio Edit)
Igor Stravinsky
11. Bobby Summerfield - Carmina (Radio Edit) - B. Summerfield
Carl Orff / Bobby Summerfield-

CUE-файл&#58;

REM GENRE Rock / Classical
REM DATE 1997
REM DISCID 95113A0B
REM COMMENT "ExactAudioCopy v0.99pb4"
PERFORMER "Various"
TITLE "Mozart Master Mix"
FILE "Various - Mozart Master Mix.flac" WAVE
  TRACK 01 AUDIO
    TITLE "Carmina"
    PERFORMER "Bobby Summerfield"
    INDEX 01 00:00:00
  TRACK 02 AUDIO
    TITLE "Diadema (Hildegard Hypno-Trance)"
    PERFORMER "Kathy Theil"
    INDEX 01 06:20:60
  TRACK 03 AUDIO
    TITLE "Prodigy Groove (Mozart Master Mix)"
    PERFORMER "Greg Pagani"
    INDEX 01 13:40:65
  TRACK 04 AUDIO
    TITLE "Firebird"
    PERFORMER "Greg St. Regis / Marco St. Regis"
    INDEX 01 19:04:70
  TRACK 05 AUDIO
    TITLE "Vivalogy (Seasons Mix)"
    PERFORMER "Bobby Summerfield"
    INDEX 01 26:58:70
  TRACK 06 AUDIO
    TITLE "Bach's Humana"
    PERFORMER "Greg Pagani"
    INDEX 01 33:40:22
  TRACK 07 AUDIO
    TITLE "Moonlight"
    PERFORMER "Greg Pagani"
    INDEX 01 39:43:20
  TRACK 08 AUDIO
    TITLE "Nightmare On The Dance Floor"
    PERFORMER "Bobby Summerfield"
    INDEX 01 45:21:45
  TRACK 09 AUDIO
    TITLE "Diadema (Radio Edit)"
    PERFORMER "Kathy Theil"
    INDEX 00 53:03:55
    INDEX 01 53:05:54
  TRACK 10 AUDIO
    TITLE "Firebird (Radio Edit)"
    PERFORMER "Greg St. Regis / Marco St. Regis"
    INDEX 00 56:35:47
    INDEX 01 56:37:34
  TRACK 11 AUDIO
    TITLE "Carmina (Radio Edit)"
    PERFORMER "Bobby Summerfield"
    INDEX 00 60:25:28
    INDEX 01 60:27:11

Отчёт ЕАС&#58;

Exact Audio Copy V0.99 prebeta 4 from 23. January 2008
EAC extraction logfile from 26. July 2008, 12:09
Various / Mozart Master Mix
Used drive  : TSSTcorpCDDVDW SH-S203D   Adapter: 1  ID: 0
Read mode               : Secure
Utilize accurate stream : Yes
Defeat audio cache      : Yes
Make use of C2 pointers : No
Read offset correction                      : 6
Overread into Lead-In and Lead-Out          : No
Fill up missing offset samples with silence : Yes
Delete leading and trailing silent blocks   : No
Null samples used in CRC calculations       : Yes
Used interface                              : Native Win32 interface for Win NT & 2000
Used output format              : User Defined Encoder
Selected bitrate                : 128 kBit/s
Quality                         : High
Add ID3 tag                     : No
Command line compressor         : E:\_rip\flac\flac.exe
Additional command line options : -8 -V -T "ARTIST=%a" -T "TITLE=%t" -T "ALBUM=%g" -T "DATE=%y" -T "TRACKNUMBER=%n" -T "GENRE=%m" -T "COMMENT=EAC FLAC -8" %s
TOC of the extracted CD
     Track |   Start  |  Length  | Start sector | End sector
    ---------------------------------------------------------
        1  |  0:00.00 |  6:20.60 |         0    |    28559
        2  |  6:20.60 |  7:20.05 |     28560    |    61564
        3  | 13:40.65 |  5:24.05 |     61565    |    85869
        4  | 19:04.70 |  7:54.00 |     85870    |   121419
        5  | 26:58.70 |  6:41.27 |    121420    |   151521
        6  | 33:40.22 |  6:02.73 |    151522    |   178744
        7  | 39:43.20 |  5:38.25 |    178745    |   204119
        8  | 45:21.45 |  7:44.09 |    204120    |   238928
        9  | 53:05.54 |  3:31.55 |    238929    |   254808
       10  | 56:37.34 |  3:49.52 |    254809    |   272035
       11  | 60:27.11 | 13:03.02 |    272036    |   330762
Range status and errors
Selected range
     Filename E:\_rip\_mozart\Various - Mozart Master Mix.wav
     Peak level 96.6 %
     Range quality 100.0 %
     Copy CRC 05F34CB3
     Copy OK
No errors occurred
AccurateRip summary
Track  1  not present in database
Track  2  not present in database
Track  3  not present in database
Track  4  not present in database
Track  5  not present in database
Track  6  not present in database
Track  7  not present in database
Track  8  not present in database
Track  9  not present in database
Track 10  not present in database
Track 11  not present in database
None of the tracks are present in the AccurateRip database
End of status report

Отчёт auCDtect Task manager&#58;

-----------------------
DON'T MODIFY THIS FILE
-----------------------
PERFORMER: auCDtect Task Manager, ver. 1.6.0 RC1 build 1.6.0.1
Copyright (c) 2008-2010 y-soft. All rights reserved
http://y-soft.org
ANALYZER: auCDtect: CD records authenticity detector, version 0.8.2
Copyright (c) 2004 Oleg Berngardt. All rights reserved.
Copyright (c) 2004 Alexander Djourik. All rights reserved.
FILE: Various - Mozart Master Mix.flac
  Size: 465417114 Hash: A3D624C724F73D015A89D136B064AFCA Accuracy: -m0
  Conclusion: CDDA 100%
  Signature: FEFD6351768F3FE47F0D24E388902CE0E1730974

Спектрограмма&#58;

--
Яндекс.Метрика
Рейтинг@Mail.ru