[ Сегодня на трекере фрилич! Идет свободное скачивание без начисления Download ]

Люси / Lucy (2014) HDRip [H.264] [AVO]

 

Создавать темы 03-Янв-2015 12:54

-Люси / Lucy (2014) HDRip-«Она — ключ к тайнам Вселенной»- Год выпуска: 2014
Производство: Франция / Canal+ [fr], Cin, EuropaCorp
Жанр: Боевик, Фантастика-Режиссер: Люк Бессон
Продюсер: Виржини Силла, Марк Шмугер
Актеры: Скарлетт Йоханссон, Морган Фримен, Аналей Типтон, Мин Сик Чхве, Амр Вакид, Мэйсон Ли, Йохан Филип Асбек, Фредерик Чау, Клер Трэн, Жан Оливер Шредер
Описание фильма:
Еще вчера она была просто сексапильной блондинкой, а сегодня — самое опасное и смертоносное создание на планете со сверхъестественными способностями и интеллектом. То, что совсем недавно лучшие умы мира считали фантастической теорией, для нее стало реальностью. И теперь из добычи она превратится в охотницу...Ее зовут Люси…-Перевод: Авторский (одноголосый, закадровый) А.Ю.Гаврилов
Субтитры: Отсутствуют-
Дата мировой премьеры: 25 июля 2014
Дата российской премьеры: 11 сентября 2014, «UPI»
Дата выхода DVD релиза: 22 января 2015, «Двадцатый Век Фокс СНГ»-Продолжительность: 01:29:21
Качество видео: HDRip
Формат: MKV
Видео: AVC, 1024x424 (2.40:1), 23.976 fps, 1 908 Kbps (0.183 bit/pixel)
Аудио: AC-3, 48.0 KHz, 6 ch, 448 Kbps, CBR (Russian)

Дополнительная информация о релизе:

За видеоряд спасибо StarbirS
За перевод А.Гаврилова большое спасибо пользователям форума hdtracker:
rydanes; dwser; dunhill200; Denis1980; Brown15; GaryH; Chistobaev; Диммон; KerkP; Видео; Role; Отон; Denis2251; hulahup; Gangster; ultrajeka; fly32; Dr. Destructo; apollion; saenwert; Shumway
и Е-180:
foxlight; пуля; zeleniy; kondratzx; chontvari; xerman13; Vladimir; MyxAmoP; luka69; karantin66; Nadoelo; uchitel538; madoff; furria62; audiolubitel; фёдор александрович; vit; Letyoha3; pestel; Iceman; carnivale; User
За готовую дорожку с переводом А.Гаврилова спасибо foxlight.

Знаете ли вы, что...

• Когда Люси находится на Таймс-сквер, за ее правым плечом виден щит с рекламой фильма «Малавита» (2013), режиссером которого также является Люк Бессон.
• Перед тем, как заканчивается автомобильная погоня, в кадре можно заметить пожилого мужчину, читающего газету. В верхней части главной страницы видна реклама фильма «Тихоокеанский рубеж» (2013).
• Режиссер Люк Бессон сыграл эпизодическую роль врача в больнице в Париже.
• В своем интервью Люк Бессон рассказал, что на реализацию этого проекта ушло 10 лет. Кроме того режиссер сказал, что он знал о том, что некоторые научные предположения были ошибочными, например то, что люди используют лишь 10 процентов своего мозга. Тем не менее, он сказал, что «такое предположение» должно быть отличным началом для научно-фантастического фильма.

Ошибки в фильме:

• В фильме утверждается, что Люси была первым человеком. На самом деле в науке не существует понятия «первый человек» или любой другой первый представитель вида. Люси — это самая древняя из обнаруженных особей вида Австралопитек афарский.
• Во время сцены в автомобиле, когда Люси едет в университет, на приборной панели отображается, что ручка коробки передач находится в режиме «P» (Park), при этом показывается, что автомобиль движется на высокой скорости.
• Когда Люси вынимает пакет с препаратом из живота курьера во Франции, ее руки полностью перепачканы. В следующем кадре они садятся с полицейским в машину, и ее руки уже абсолютно чистые.
• В сцене воспоминаний коренных американцев показывают в Нью-Йорке. На самом деле это были индейцы Великих равнин, а не уроженцы Нью-Йорка. Кроме того, они ездят верхом на лошадях, что было принесено в Новый Свет европейцами.
• Когда Люси разговаривает с французской полицией, она говорит, что CPH4 имеет вид голубого порошка. На самом деле препарат представляет собой голубые кристаллы.
• Когда Люси звонит во французскую полицию, она уже прошла иммиграционный контроль. Но в следующем кадре она все еще не прошла паспортный контроль.
• На экстрадицию немецкого подозреваемого во Францию ушли бы недели. Также его выдаче должен в первую очередь предшествовать разговор с адвокатом.
• Когда изображение Люси появляется на HDTV в номере отеля, на нем видны строки развертки, которых не должно быть видно на HDTV. Кроме того ширина этих линий меняется при смене кадра.
• Нельзя использовать полицейское радио, чтобы перехватить звонок на мобильный телефон.
• Когда Люси отправляется в прошлое, она встречает динозавров. Затем она перемещается еще дальше в прошлое и встречает человекоподобное существо. Гуманоиды появились только спустя 64 миллиона лет после вымирания динозавров.
• Когда Люси видит, как распадаются ее клетки, она запирается в уборной самолета. Весь персонал самолета при этом умоляет ее открыть дверь. Любая стюардесса знает, что дверь туалета на борту самолета легко можно открыть снаружи за несколько секунд.
• Когда Люси катается по стене и потолку в тюремной камере, как будто отсутствует гравитация, видно, что ее футболка свисает не в том направлении в каждом кадре — по направлению к стене или потолку.
• Профессор Норман, герой Моргана Фримана, утверждает, что жизнь на Земле появилась 1 миллиард лет назад. На самом деле специалисты дают оценку в 3,7 миллиарда лет.
• Профессор Норман, герой Моргана Фримана, утверждает, что мозг человека используется только на 10% (15 миллиардов нейронов из 100). На самом деле это популярный миф: мозг используется на 100%, но не одновременно, а только по мере необходимости в тех или иных его отделах.
• Когда кожа Люси становится черной, видно ее полностью почерневшие руки. В следующем кадре снова показывают ее руки, но они все еще телесного цвета.
• Во время сцены, когда Люси переносится в Нью-Йорк, вокруг находится много народу, но её никто не замечает, и никому не кажется странным внезапное появление девушки из ниоткуда, и то, что она находится на офисном стуле посреди Тайм Сквер. Хотя, когда Люси переносится в эру динозавров, хищная особь её замечает сразу.

MediaInfo:

Формат : Matroska
Версия формата : Version 2
Размер файла : 1,47 Гбайт
Продолжительность : 1 ч. 29 м.
Общий поток : 2356 Кбит/сек
Название фильма : Lucy.2014.x264
Дата кодирования : UTC 2015-01-03 07:21:19
Программа кодирования : mkvmerge v5.3.0 ('I could have danced') built on Feb 9 2012 10:38:07
Библиотека кодирования : libebml v1.2.3 + libmatroska v1.3.0
Attachment : Yes
Видео
Идентификатор : 1
Формат : AVC
Формат/Информация : Advanced Video Codec
Профиль формата : [url=mailto:[email protected]][email protected][/url]
Параметр CABAC формата : Да
Параметр ReFrames формата : 9 кадров
Идентификатор кодека : V_MPEG4/ISO/AVC
Продолжительность : 1 ч. 29 м.
Битрейт : 1908 Кбит/сек
Ширина : 1024 пикселя
Высота : 424 пикселя
Соотношение сторон : 2,40:1
Режим частоты кадров : Постоянный
Частота кадров : 23,976 кадра/сек
Цветовое пространство : YUV
Субдискретизация насыщенности : 4:2:0
Битовая глубина : 8 бит
Тип развёртки : Прогрессивная
Бит/(Пиксели*Кадры) : 0.183
Размер потока : 1,16 Гбайт (79%)
Заголовок : Lucy.2014
Библиотека кодирования : x264 core 142 r2431 ac76440
Настройки программы : cabac=1 / ref=9 / deblock=1:-3:-3 / analyse=0x3:0x113 / me=umh / subme=11 / psy=1 / psy_rd=1.00:0.20 / mixed_ref=1 / me_range=48 / chroma_me=1 / trellis=2 / 8x8dct=1 / cqm=0 / deadzone=21,11 / fast_pskip=0 / chroma_qp_offset=-3 / threads=12 / lookahead_threads=2 / sliced_threads=0 / nr=0 / decimate=0 / interlaced=0 / bluray_compat=0 / constrained_intra=0 / bframes=8 / b_pyramid=2 / b_adapt=2 / b_bias=0 / direct=3 / weightb=1 / open_gop=0 / weightp=2 / keyint=250 / keyint_min=23 / scenecut=40 / intra_refresh=0 / rc=2pass / mbtree=0 / bitrate=1908 / ratetol=1.0 / qcomp=0.60 / qpmin=0 / qpmax=69 / qpstep=4 / cplxblur=20.0 / qblur=0.5 / ip_ratio=1.40 / pb_ratio=1.30 / aq=1:1.00
Язык : English
Default : Да
Forced : Нет
Аудио
Идентификатор : 2
Формат : AC-3
Формат/Информация : Audio Coding 3
Расширение режима : CM (complete main)
Параметр Endianness формата : Big
Идентификатор кодека : A_AC3
Продолжительность : 1 ч. 29 м.
Вид битрейта : Постоянный
Битрейт : 448 Кбит/сек
Каналы : 6 каналов
Расположение каналов : Front: L C R, Side: L R, LFE
Частота : 48,0 КГц
Битовая глубина : 16 бит
Метод сжатия : С потерями
Задержка видео : 1 с. 0 мс.
Размер потока : 286 Мбайт (19%)
Заголовок : Авторский А.Гаврилов
Язык : Russian
Default : Нет
Forced : Нет
Меню
00:00:00.000 : en:Chapter 01
00:05:28.000 : en:Chapter 02
00:08:40.000 : en:Chapter 03
00:15:47.000 : en:Chapter 04
00:21:37.000 : en:Chapter 05
00:26:07.000 : en:Chapter 06
00:30:29.000 : en:Chapter 07
00:37:38.000 : en:Chapter 08
00:41:41.000 : en:Chapter 09
00:47:34.000 : en:Chapter 10
00:50:12.000 : en:Chapter 11
00:55:34.000 : en:Chapter 12
00:59:37.000 : en:Chapter 13
01:02:07.000 : en:Chapter 14
01:04:53.000 : en:Chapter 15
01:07:15.000 : en:Chapter 16
01:10:04.000 : en:Chapter 17
01:12:30.000 : en:Chapter 18
01:18:52.000 : en:Chapter 19
01:22:31.000 : en:Chapter 20
Скришоты:-Время раздачи: 24/7 (до 10 скачавших)
Яндекс.Метрика
Рейтинг@Mail.ru