Проводы Старого года на Первом канале (2014.12.31) SATRip

 

Создавать темы 03-Янв-2015 12:48

- Проводы Старого года на Первом канале (2014.12.31) SATRip - Режиссер / Телекомпания:
Первый канал
Русское название: Проводы Старого года на Первом канале
Год выпуска: 2014
Жанр: ТВ_Шоу
Выпущено: Россия
Описание:
Среди иностранных гостей на этом празднике: Stromae, Secret Service, Dschinghis khan, Arabesque, Joy, Ricchi e Poveri и другие. Наталья Орейро, отправившись в большой тур по городам России, говорит по-русски почти без акцента. Но в новогоднюю ночь Орейро споет на родном языке
Продолжительность: 01:26:04
Видеокодек: XVID
Качество видео: SATRip
Битрейт видео: ~1800 kb/s
Размер кадра: 704 x 448
Аудиокодек: AC-3, 2.0ch.
Битрейт аудио: 192 kb/s

MediaInfo:

Формат : AVI
Формат/Информация : Audio Video Interleave
Размер файла : 1,20 Гбайт
Продолжительность : 1 ч. 26 м.
Общий поток : 1998 Кбит/сек
Видео
Идентификатор : 0
Формат : MPEG-4 Visual
Профиль формата : Advanced [email protected]
Параметр BVOP формата : 2
Параметр QPel формата : Нет
Параметр GMC формата : Без точки перехода
Параметр матрицы формата : Default (H.263)
Идентификатор кодека : XVID
Идентификатор кодека/Подсказка : XviD
Продолжительность : 1 ч. 26 м.
Битрейт : 1795 Кбит/сек
Ширина : 704 пикселя
Высота : 448 пикселей
Соотношение сторон : 16:10
Частота кадров : 25,000 кадров/сек
Цветовое пространство : YUV
Субдискретизация насыщенности : 4:2:0
Битовая глубина : 8 бит
Тип развёртки : Прогрессивная
Метод сжатия : С потерями
Бит/(Пиксели*Кадры) : 0.228
Размер потока : 1,08 Гбайт (90%)
Библиотека кодирования : XviD 1.2.1 (UTC 2008-12-04)
Аудио
Идентификатор : 1
Формат : AC-3
Формат/Информация : Audio Coding 3
Расширение режима : CM (complete main)
Параметр Endianness формата : Big
Идентификатор кодека : 2000
Продолжительность : 1 ч. 26 м.
Вид битрейта : Постоянный
Битрейт : 192 Кбит/сек
Каналы : 2 канала
Расположение каналов : Front: L R
Частота : 48,0 КГц
Битовая глубина : 16 бит
Метод сжатия : С потерями
Размер потока : 118 Мбайт (10%)
Выравнивание : Соединение по промежуткам
Продолжительность промежутка : 32 мс. (0,80 видеокадр)
Скриншоты:--Время раздачи: 24/7. До первых 5 скачавших.
Rip by Taz
Проводы Старого года на DDGroupClub
Яндекс.Метрика
Рейтинг@Mail.ru