[ Сегодня на трекере фрилич! Идет свободное скачивание без начисления Download ]

Новогодняя ночь на Первом (2015.01.01) SATRip

 

Создавать темы 03-Янв-2015 12:39

- Новогодняя ночь на Первом (2015.01.01) SATRip - Режиссер / Телекомпания:
Первый канал
Русское название: Новогодняя ночь на Первом
Год выпуска: 2014
Жанр: ТВ_Шоу
Выпущено: Россия
Описание:
800 кубометров отборного елового леса, нескончаемый поток знакомых лиц и тостов и тазик оливье – догадайтесь, сколько елок было у Ларисы Гузеевой? В новогоднюю ночь на Первом Гузеева станет Снегурочкой, а роль Деда Мороза досталась Юлии Зиминой, которую борода совсем не портит. Ждите от нас еще сюрпризы в новогоднюю ночь!
Первый – для поклонников шоу "Голос". В новогоднюю ночь на Первом встретятся участники всех трех сезонов главного вокального конкурса. Среди них: Шарип Умханов, Пьер Эдель, Мариам Мерабова, Евгений Кунгуров, Методие Бужор, Дина Гарипова, Элина Чага, Севара, Алиса Игнатьева, Ксана Сергиенко, Александра Воробьева, Валентина Бирюкова, Александр Бон, Антон Беляев, Елена Максимова и Эльмира Калимулина. Без наставников "Голоса" тоже не обойдется: Леонид Агутин, Александр Градский, Дима Билан покажут, на что способны. А у Дмитрия Нагиева появится новый соведущий - Дмитрий Нагиев.
Ему и слово: "На Первом канале - главный новогодний проект года! И я хочу поднять этот бокал за тех, кто с нами. Как говорил мой дед: "Лицо от оливье недалеко падает". Так что держитесь! И чтобы взбодрить ваши ягодицы, я предлагаю послушать что-нибудь из Элвиса. На Первом канале - Стас Костюшкин! Какая связь? Да никакой! Новый Год!".
Вспомним любимые мелодии. Вместе с группой "Город 312" - "Шагает парень", с "А-Студио" - "Позвони мне, позвони", "Иванушки int" вдохнут новую жизнь в "Песенку велосипедистов", а Юрий Антонов исполнит свои незабываемые главные песни "Я вспоминаю" и "Мечты сбываются".
Поклонникам "Евровидения". Участники от России, занявшие на конкурсе самые высокие места - Дима Билан и "Бурановские бабушки" - выступят дуэтом. За время выступления трудолюбивые бабушки успели связать "внучку" в подарок шарф.
Среди иностранных гостей на этом празднике: Stromae, Secret Service, Dschinghis khan, Arabesque, Joy, Ricchi e Poveri и другие. Наталья Орейро, отправившись в большой тур по городам России, говорит по-русски почти без акцента. Но в новогоднюю ночь Орейро споет на родном языке.

далее...

Для поклонников шоу "Точь-в-точь". Никита и Владимир Пресняковы грянут "Стюардессу по имени Жанна", а Дмитрий Колдун выступит с хитом Scooterа "How much is the fish". Севара перевоплотится в Розу Рымбаеву, Натали станет Надеждой Кадышевой. Наталья Подольская с хитом " I`m every woman". И две Ирины Аллегровы – настоящая и Дубцова из "Точь-в-точь" - встретятся в новогоднюю ночь.
Из новогодних традиций на Первом. Филипп Киркоров в перьях выедет на сцену на золотой колеснице. Кристина Орбакайте с новой песней встретит Новый год на свадьбе. Жасмин и Валентин Юдашкин пересчитают то немногое, что накопили за год.
Декорации для номера Николая Расторгуева привезли из ближайшего овощного магазина. Также в номере был задействован настоящий карточный шулер.
Александр Олешко всю ночь читает стихи, а Максим Аверин - письма Деда Мороза. Ведущая новостей Анна Павлова сыграет с Дмитрием Дибровым в новогоднего "Миллионера", а Дмитрий с Анной сообщит последние новости.
Вместе со всей страной Новый год встречают: Иван Ургант, Дмитрий Нагиев, Андрей Малахов, Алла Михеева, Дмитрий Шепелев, Виктор Васильев, Дмитрий Хрусталев, Екатерина Стриженова, Максим Аверин, Валдис Пельш и другие звезды.
В новогоднюю ночь на Первом для вас поют: София Ротару, Григорий Лепс, Кристина Орбакайте, Ани Лорак, Алсу, Константин Меладзе, Александр Олешко, Жасмин, Филипп Киркорова, Нюша, Александр Буйнов, Надежда Бабкина и многие другие.
Продолжительность: 04:08:39
Видеокодек: XviD
Качество видео: SATRip
Битрейт видео: ~1800 kb/s
Размер кадра: 704 x 448
Аудиокодек: AC3, 2.0ch.
Битрейт аудио: 192 kb/s

MediaInfo:

Формат : AVI
Формат/Информация : Audio Video Interleave
Размер файла : 3,47 Гбайт
Продолжительность : 4 ч. 8 м.
Общий поток : 2000 Кбит/сек
Видео
Идентификатор : 0
Формат : MPEG-4 Visual
Профиль формата : Advanced [email protected]
Параметр BVOP формата : 2
Параметр QPel формата : Нет
Параметр GMC формата : Без точки перехода
Параметр матрицы формата : Default (H.263)
Идентификатор кодека : XVID
Идентификатор кодека/Подсказка : XviD
Продолжительность : 4 ч. 8 м.
Битрейт : 1797 Кбит/сек
Ширина : 704 пикселя
Высота : 448 пикселей
Соотношение сторон : 16:10
Частота кадров : 25,000 кадров/сек
Цветовое пространство : YUV
Субдискретизация насыщенности : 4:2:0
Битовая глубина : 8 бит
Тип развёртки : Прогрессивная
Метод сжатия : С потерями
Бит/(Пиксели*Кадры) : 0.228
Размер потока : 3,12 Гбайт (90%)
Библиотека кодирования : XviD 1.2.1 (UTC 2008-12-04)
Аудио
Идентификатор : 1
Формат : AC-3
Формат/Информация : Audio Coding 3
Расширение режима : CM (complete main)
Параметр Endianness формата : Big
Идентификатор кодека : 2000
Продолжительность : 4 ч. 8 м.
Вид битрейта : Постоянный
Битрейт : 192 Кбит/сек
Каналы : 2 канала
Расположение каналов : Front: L R
Частота : 48,0 КГц
Битовая глубина : 16 бит
Метод сжатия : С потерями
Размер потока : 341 Мбайт (10%)
Выравнивание : Соединение по промежуткам
Продолжительность промежутка : 32 мс. (0,80 видеокадр)
Скриншоты:--Время раздачи: 24/7. До первых 5 скачавших.
Rip by Taz
Яндекс.Метрика
Рейтинг@Mail.ru