Ээхх, разгуляй! (2015.01.01) SATRip

 

Создавать темы 03-Янв-2015 12:35

- Ээхх, разгуляй! (2015.01.01) SATRip - Режиссер / Телекомпания:
НТВ
Русское название: Ээхх, разгуляй!
Год выпуска: 2014
Жанр: ТВ-шоу
Выпущено: Россия
Описание:
В новогоднюю ночь телеканал НТВ покажет телевизионную версию фестиваля «Ээхх, разгуляй!». Это яркое мероприятие – настоящий всенародный праздник, который любят и ждут. В музыкальном марафоне традиционно принимают участие самые яркие звезды российского шансона.
Зрители НТВ увидят выступления Елены Ваенги, Сергея Трофимова, Любови Успенской, Михаила Шуфутинского, Дениса Майданова, Ирины Круг, Киры Дымова, группы «Лесоповал», Катерины Голицыной, Михаила Бублика, Алексея Брянцева, Афины, Сергея Любавина, Александра Ломинского, Рината Каримова, Валерия Кураса, Сергея Куренкова, Виктора Королёва, Александра Дюмина, Андрея Весенина, Любови Шепиловой, Александра Маршала, Стеллы Джанни, Вячеслава Добрынина, Владислава Медяника, Виктора Третьякова, группы «Весна», Анны Громовой, Алёны Апиной, Потапа и Насти, Игоря Саруханова, Юты, группы «Uma2rman», Таисии Повалий и многих-многих других!
Ведущие: Екатерина Шевцова, Аня Каверина, Александра Хайруллина, Артем Демин, Роман Шахов
Участники: Елена Ваенга, Сергей Трофимов, Любовь Успенская, Михаил Шуфутинский, Денис Майданов, Ирина Круг, Кир Дымов, группа «Лесоповал», Катерина Голицына, Михаил Бублик, Алексей Брянцев, Афина, Сергей Любавин, Александр Ломинский, Ринат Каримов, Валерий Курас, Сергей Куренков, Виктор Королёв, Александр Дюмин, Андрей Весенин, Любовь Шепилова, Александр Маршал, Стелла Джанни, Вячеслав Добрынин, Владислав Медяник, Виктор Третьяков, группа «Весна», Анна Громова, Алёна Апина, Потап и Настя, Игорь Саруханов, Юта, группа «Uma2rman», Таисия Повалий и другие.
Продолжительность: 03:05:14
Видеокодек: XVID
Качество видео: SATRip
Битрейт видео: ~1800 kb/s
Размер кадра: 720 x 448
Аудиокодек: AC3, 2.0ch.
Битрейт аудио: 192 kb/s

MediaInfo:

Формат : AVI
Формат/Информация : Audio Video Interleave
Профиль формата : OpenDML
Размер файла : 2,59 Гбайт
Продолжительность : 3 ч. 5 м.
Общий поток : 1998 Кбит/сек
Программа кодирования : VirtualDubModRus 1.5.10.2 (build 2542/release)
Библиотека кодирования : VirtualDubMod build 2542/release
Видео
Идентификатор : 0
Формат : MPEG-4 Visual
Профиль формата : Advanced [email protected]
Параметр BVOP формата : 2
Параметр QPel формата : Нет
Параметр GMC формата : Без точки перехода
Параметр матрицы формата : Default (H.263)
Идентификатор кодека : XVID
Идентификатор кодека/Подсказка : XviD
Продолжительность : 3 ч. 5 м.
Битрейт : 1795 Кбит/сек
Ширина : 720 пикселей
Высота : 448 пикселей
Соотношение сторон : 16:10
Частота кадров : 25,000 кадров/сек
Цветовое пространство : YUV
Субдискретизация насыщенности : 4:2:0
Битовая глубина : 8 бит
Тип развёртки : Прогрессивная
Метод сжатия : С потерями
Бит/(Пиксели*Кадры) : 0.223
Размер потока : 2,32 Гбайт (90%)
Библиотека кодирования : XviD 1.2.1 (UTC 2008-12-04)
Аудио
Идентификатор : 1
Формат : AC-3
Формат/Информация : Audio Coding 3
Расширение режима : CM (complete main)
Параметр Endianness формата : Big
Идентификатор кодека : 2000
Продолжительность : 3 ч. 5 м.
Вид битрейта : Постоянный
Битрейт : 192 Кбит/сек
Каналы : 2 канала
Расположение каналов : Front: L R
Частота : 48,0 КГц
Битовая глубина : 16 бит
Метод сжатия : С потерями
Размер потока : 254 Мбайт (10%)
Выравнивание : Разделение по промежуткам
Продолжительность промежутка : 40 мс. (1,00 видеокадр)
Время предзагрузки промежутка : 500 мс.
Скриншоты:--Время раздачи: 24/7. До первых 5 скачавших.
Rip by -=FOX=-
Яндекс.Метрика
Рейтинг@Mail.ru