[ Сегодня на трекере фрилич! Идет свободное скачивание без начисления Download ]

Михаил Задорнов. Неформат 66 (Итоги 2014 года) (2014) WEBRip

 

Создавать темы 03-Янв-2015 12:20

- Михаил Задорнов. Неформат 66 (Итоги 2014 года) (2014) WEBRip - Режиссер / Телекомпания:
Юмор FM
Русское название: Михаил Задорнов
Год выпуска: 2014
Жанр: Юмор
Описание:
Новый год у славян и римлян. Полдень - это не 12, а когда Солнце в зените. Сотворение мира в звёздном храме. Путаница с календарями, за что убили Цезаря. Пить в Новый год - бесовщина. Главный бес говорит речь. События года: Олимпиада в Сочи. Крым наш, Путин, 5-ая колонна и оппозиция. ГАИшникам запретили ловить нарушителей из засады. Родила царица в ночь сверху сына, снизу дочь или Евровидение 2014. Олег Знарок привёл Россию к победе в хоккее! Где прочитать и как познать Веды? Это фальшивка? Экономика России это 5-ая колонна. Закон о запрете курения. Закон о защите детей от вредной информации. Закон медведа и постоянном зимнем времени. Закон о запрете мата в СМИ. Мат на сцене залог простатита. Закон о запрете кружевного белья. Селфи Айфони в лифте это фотоонанизм. Взлом Твиттера Нанотольевича. Кризис турфирм. Они жулики и спекулянты. Путешествуйте по России. Значки ГТО. Джен Псаки - знаменитость года. Псаки в глаза Божья роса. Сбитый "Боинг" на Донбассе и интервью в газете. Мистрали. Независимость Шотландии и Каталонии. Сталин, Черчилль и Рузвельт. Сталин переиграл Черчилля в переговорах, как лоха. Обвал рубля. Ё-мобиль Прохорова был пиаром. Эстония. Забота амеров об Украине - забота волков о ягнятах. Не смотрите новости! Богатые и бедные, кто разорится? Похмелье, пиво и бабуся. Тупой америкос вызывал заборный сервис. Надписи в лифтах.
Режиссёр: Михаил Задорнов
Продолжительность: ~ 01:32:31
Видеокодек: XVID
Битрейт видео: ~1550 kb/s
Размер кадра: 720 x 400
Качество видео: WEBRip
Аудиокодек: AC-3, 2ch.
Битрейт аудио: 192 kb/s

MediaInfo

Формат : AVI
Формат/Информация : Audio Video Interleave
Размер файла : 1,13 Гбайт
Продолжительность : 1 ч. 32 м.
Общий поток : 1749 Кбит/сек
Программа кодирования : TMPGEnc Video Mastering Works 5 Version. 5.0.6.38
Библиотека кодирования : TMPGEnc Video Mastering Works 5 Version. 5.0.6.38
Видео
Идентификатор : 0
Формат : MPEG-4 Visual
Профиль формата : Advanced [email protected]
Параметр BVOP формата : 2
Параметр QPel формата : Нет
Параметр GMC формата : Без точки перехода
Параметр матрицы формата : Default (H.263)
Режим смешивания : Сжатый битовый поток
Идентификатор кодека : XVID
Идентификатор кодека/Подсказка : XviD
Продолжительность : 1 ч. 32 м.
Битрейт : 1549 Кбит/сек
Ширина : 720 пикселей
Высота : 400 пикселей
Соотношение сторон : 16:9
Частота кадров : 25,000 кадров/сек
Цветовое пространство : YUV
Субдискретизация насыщенности : 4:2:0
Битовая глубина : 8 бит
Тип развёртки : Прогрессивная
Метод сжатия : С потерями
Бит/(Пиксели*Кадры) : 0.215
Размер потока : 1,00 Гбайт (89%)
Библиотека кодирования : XviD 64
Аудио
Идентификатор : 1
Формат : AC-3
Формат/Информация : Audio Coding 3
Расширение режима : CM (complete main)
Параметр Endianness формата : Big
Идентификатор кодека : 2000
Продолжительность : 1 ч. 32 м.
Вид битрейта : Постоянный
Битрейт : 192 Кбит/сек
Каналы : 2 канала
Расположение каналов : Front: L R
Частота : 44,1 КГц
Битовая глубина : 16 бит
Метод сжатия : С потерями
Размер потока : 127 Мбайт (11%)
Выравнивание : Соединение по промежуткам
Продолжительность промежутка : 160 мс. (4,01 видеокадра)
Время предзагрузки промежутка : 313 мс.
Скриншоты:--Время раздачи: 24/7. До первых 5 скачавших.
Rip by svlesin
Яндекс.Метрика
Рейтинг@Mail.ru