[ Сегодня на трекере фрилич! Идет свободное скачивание без начисления Download ]

Точь-в-точь. Новогодний выпуск (2015.01.01) SATRip

 

Создавать темы 03-Янв-2015 12:13

- Точь-в-точь. Новогодний выпуск (2015.01.01) SATRip - Режиссер / Телекомпания:
Первый канал
Русское название: Точь-в-точь
Год выпуска: 2014
Жанр: ТВ-шоу
Выпущено: Россия
Описание:
Шоу перевоплощений "Точь-в-точь!", ставшее одним из музыкально-развлекательных хитов на российском телевидении в уходящем году, возвращается к зрителю в Новый год в виде грандиозного праздничного гала-вечера!
На долю мастеров пластического грима выпала тройная нагрузка, зато эффект поразителен – в большинстве образов удалось достичь практически фотографического сходства. Членам жюри (Любовь Казарновская, Геннадий Хазанов, Леонид Ярмольник и Михаил Боярский) придется призвать на помощь весь свой опыт работы в проекте, чтобы догадаться, кто создал тот или иной образ. Сделать это будет невероятно трудно с учетом того, что под маской может оказаться кто угодно, а не только участники "Точь в Точь"! В новогодней версии шоу приняло участие множество звезд, ранее никогда не экспериментировавших в жанре пародии и перевоплощения!
Участники: Валерия, Дмитрий Дюжев, Натали, Жасмин, Татьяна Буланова, Юрий Гальцев, Марат Башаров, Наталья Подольская, Алсу, Александр Буйнов, Зара, Анита Цой, Витас, Дмитрий Колдун, Александр Ревва, Ани Лорак, Ирина Дубцова, Филипп Киркоров, Ольга Кормухина, Кристина Орбакайте, Дима Билан, Никита Пресняков и др.
Образы: Фрэнк Синатра, Стас Михайлов, Демис Руссос, Джордж Майкл ‘Last Christmass’, Рафаэлла Кара, Барбара Стрейзанд, Маша Распутина, Лайза Минелли, Николай Баской, Уитни Хьюстон, Адриано Челентано, Эдита Пьеха, Филипп Киркоров, ABBA, Шер, Эдит Пиаф, Тони Брэкстон, Жанна Агузарова, Андрей Мягков, Александр Абдулов, Трус-Балбес-Бывалый, Люба Успенская, София Ротару, Верка Сердючка, Валентина Толкунова, Людмила Гурченко и др.
Продолжительность: 03:35:40
Видеокодек: XVID
Качество видео: SATRip
Битрейт видео: ~1800 kb/s
Размер кадра: 704 x 448
Аудиокодек: MP2, 2.0ch.
Битрейт аудио: 256 kb/s

MediaInfo:

Формат : AVI
Формат/Информация : Audio Video Interleave
Профиль формата : OpenDML
Размер файла : 3,11 Гбайт
Продолжительность : 3 ч. 35 м.
Общий поток : 2066 Кбит/сек
Программа кодирования : VirtualDubModRus 1.5.10.1 (build 2439/release)
Библиотека кодирования : VirtualDubMod build 2439/release
Видео
Идентификатор : 0
Формат : MPEG-4 Visual
Профиль формата : Advanced [email protected]
Параметр BVOP формата : 2
Параметр QPel формата : Нет
Параметр GMC формата : Без точки перехода
Параметр матрицы формата : Default (H.263)
Идентификатор кодека : XVID
Идентификатор кодека/Подсказка : XviD
Продолжительность : 3 ч. 35 м.
Битрейт : 1799 Кбит/сек
Ширина : 704 пикселя
Высота : 448 пикселей
Соотношение сторон : 16:10
Частота кадров : 25,000 кадров/сек
Цветовое пространство : YUV
Субдискретизация насыщенности : 4:2:0
Битовая глубина : 8 бит
Тип развёртки : Прогрессивная
Метод сжатия : С потерями
Бит/(Пиксели*Кадры) : 0.228
Размер потока : 2,71 Гбайт (87%)
Библиотека кодирования : XviD 1.2.1 (UTC 2008-12-04)
Аудио
Идентификатор : 1
Формат : MPEG Audio
Версия формата : Version 1
Профиль формата : Layer 2
Идентификатор кодека : 50
Продолжительность : 3 ч. 35 м.
Вид битрейта : Постоянный
Битрейт : 256 Кбит/сек
Каналы : 2 канала
Частота : 48,0 КГц
Метод сжатия : С потерями
Размер потока : 395 Мбайт (12%)
Выравнивание : Соединение по промежуткам
Продолжительность промежутка : 40 мс. (1,00 видеокадр)
Время предзагрузки промежутка : 504 мс.
Скриншоты:--Время раздачи: 24/7. До первых 5 скачавших.
Rip by -=DeMoH=-
Яндекс.Метрика
Рейтинг@Mail.ru