[ Сегодня на трекере фрилич! Идет свободное скачивание без начисления Download ]

Вечерний квартал 95. Выпуск 79 (Новогодний выпуск) (2014.12.31) DVB

 

Создавать темы 03-Янв-2015 12:10

- Вечерний квартал 95. Выпуск 79 (Новогодний выпуск) (2014.12.31) DVB - Режиссер / Телекомпания:
1+1
Русское название: Вечерний квартал 95
Выпущено: "Студия 95 квартал", Телеканал "Интер"
Год выпуска: 2014
Жанр: Юмор
Режиссёр: Владимир Зеленский
Актеры: Владимир Зеленский, Юрий Крапов, Денис Манжосов, Елена Кравец, Евгений Кошевой, Сергей Казанин, Александр Пикалов, Юрий Корявченков
Описание:
Ребята из "Вечернего квартала" продолжают устанавливать свои правила. И ни авторитет звезд шоу-бизнеса, ни статус влиятельных политиков, ни сам "президент Украины" не могут этому помешать. Здесь правила одни для всех, и "квартальщики" внимательно следят за тем, чтобы все "забавные законы" соблюдались. Злостных правонарушителей ребята из Квартала определяют по отсутствию улыбки на лице. Но в сегодня такие вряд ли найдутся, ведь у нас - юмор высшего класса от "Вечернего квартала".
Продолжительность: 03:25:59
Видеокодек: MPEG-PS
Битрейт видео: ~5000 kb/s
Размер кадра: 704 x 576
Качество видео: DVB
Аудиокодек: MP2, 2ch.
Битрейт аудио: 192 kb/s

В выпуске

- 31 декабря 1984 года. Ленинград. Новый год в молодой семье Путиных
- новогоднее обращение президента утром 2 января
- политический гангста-рэп об итогах 2014 года
- Владимир Зеленский: первое заседание Верховной Рады Украины 8 созыва
- политические новости на канале "Детский мир"
- Алексей Потапенко (Потап) в гостях у сербского телевидения
- группа «Mozgi» - "Аябо"
- чиновник, который боится люстрации
- группа "Люстрация" - песня о люстрации
- советы от Вахтанга Кикабидзе
- Вахтанг Кикабидзе - "Где-то там далеко"
- Вахтанг Кикабидзе - Народные мелодии
- новости нашего квартала
- первый традиционный новороссийский православный народный хор (ПТНПНХ): И. Кобзон, А. Захарченко и М. Пореченков
- Театр теней «Teulis» - "Крик души Украины"
- Валерий Жидков "Тамбовский Волк" - актёры после новогоднего детского спектакля в неотапливаемом помещении
- заседание в экспериментальном институте
- группа «Мачете» («Machete») - "Между висками"
- семейный праздник, или "Здравствуй, тёща, Новый год"
- глава НБУ Валерия Гонтарева - песня о курсе доллара (Лариса Долина - «Погода в доме»)
- Дед Мороз в опорном пункте милиции
- Тина Кароль - "Мы не останемся друзьями"
- "Братья Шумахеры" - В.Ф. Янукович на открытии реабилитационного центра
- фотоновости
- Даша Суворова - "La Ti Fa Re"
- Виталий Кличко в качестве переводчика для Криса Нормана
- Крис Норман (Chris Norman) - "I'll Meet You at Midnight"
- Крис Норман (Chris Norman) - "Living Next Door to Alice"
- Крис Норман (Chris Norman) - "Oh Carol"
- извинения перед политиками
- финальная песня про Новый год

MediaInfo

Формат : MPEG-PS
Размер файла : 7,62 Гбайт
Продолжительность : 3 ч. 25 м.
Режим общего битрейта : Переменный
Общий поток : 5297 Кбит/сек
Библиотека кодирования : (c) 1998-2011 Womble Multimedia, Inc. / MPEG Video Wizard DVD 5.0.1.100 (03/2011) / Sep 8 2011
Видео
Идентификатор : 224 (0xE0)
Формат : MPEG Video
Версия формата : Version 2
Профиль формата : [email protected]
Параметр BVOP формата : Да
Параметр матрицы формата : Выборочная
Параметр GOP формата : Variable
Format_Settings_PictureStructure : Frame
Продолжительность : 3 ч. 25 м.
Вид битрейта : Переменный
Битрейт : 5000 Кбит/сек
Максимальный битрейт : 15,0 Мбит/сек
Ширина : 704 пикселя
Высота : 576 пикселей
Соотношение сторон : 4:3
Частота кадров : 25,000 кадров/сек
Стандарт вещания : PAL
Цветовое пространство : YUV
Субдискретизация насыщенности : 4:2:0
Битовая глубина : 8 бит
Тип развёртки : Чересстрочная
Порядок развёртки : Верхнее поле первое
Метод сжатия : С потерями
Бит/(Пиксели*Кадры) : 0.493
Временной код первого кадра : 00:00:00:00
Оригинал временного кода : Group of pictures header
Размер потока : 7,19 Гбайт (94%)
Библиотека кодирования : (c) 1998-2011 Womble Multimedia, Inc. / MPEG Video Wizard DVD 5.0.1.100 (03/2011) / Sep 8 2011
Аудио
Идентификатор : 192 (0xC0)
Формат : MPEG Audio
Версия формата : Version 1
Профиль формата : Layer 2
Продолжительность : 3 ч. 25 м.
Вид битрейта : Постоянный
Битрейт : 192 Кбит/сек
Каналы : 2 канала
Частота : 48,0 КГц
Метод сжатия : С потерями
Размер потока : 283 Мбайт (4%)
Меню
Скриншоты:--Время раздачи: 24/7. До первых 5 скачавших.
Rip by shel27
Яндекс.Метрика
Рейтинг@Mail.ru