Вечерний Киев / Киев вечерний / Студия Квартал 95. Сезон №6. Выпуск №9 (2015.01.02) SATRip

 

Создавать темы 03-Янв-2015 11:50

- Вечерний Киев / Киев вечерний / Студия Квартал 95. Сезон №6. Выпуск №9 (2015.01.02) SATRip - Режиссер / Телекомпания:
1+1
Русское название: Вечерний Киев
Год выпуска: 2014
Жанр: Развлекательное шоу
Описание:
"Киев вечерний" - масштабное развлекательное шоу, которое собрало в себе смешные рубрики и программы. Это большое развлекательное шоу, формат которого нельзя описать одним словом. "Киев вечерний" - это новый этап в развитии развлекательного сегмента украинского телевидения. В проекте воедино собрано множество программ, рубрик и различных юмористических элементов, которые сами по себе вполне самодостаточны, но при этом очень органично вписываются в новый формат большой развлекательной программы. "Киев вечерний" - это шоу для всей семьи, это юмор понятен и близок каждому, это только настоящие эмоции, неподдельный смех и множество неожиданных сюрпризов.
Ведущий: Валерий Жидков, Владимир Зеленский
Продолжительность: ~ 01:38:54
Видеокодек: XviD
Битрейт видео: ~1800 kb/s
Размер кадра: 704 x 528
Качество видео: SATRip
Аудиокодек: MP3, 2ch.
Битрейт аудио: 128 kb/s

MediaInfo

Формат : AVI
Формат/Информация : Audio Video Interleave
Размер файла : 1,34 Гбайт
Продолжительность : 1 ч. 38 м.
Общий поток : 1936 Кбит/сек
Программа кодирования : VirtualDubMod 1.5.10.3 | www.virtualdub-fr.org || (build 2550/release)
Библиотека кодирования : VirtualDub build 29808/release
Видео
Идентификатор : 0
Формат : MPEG-4 Visual
Профиль формата : Advanced [email protected]
Параметр BVOP формата : 2
Параметр QPel формата : Нет
Параметр GMC формата : Без точки перехода
Параметр матрицы формата : Default (MPEG)
Идентификатор кодека : XVID
Идентификатор кодека/Подсказка : XviD
Продолжительность : 1 ч. 38 м.
Битрейт : 1798 Кбит/сек
Ширина : 704 пикселя
Высота : 528 пикселей
Соотношение сторон : 4:3
Частота кадров : 25,000 кадров/сек
Цветовое пространство : YUV
Субдискретизация насыщенности : 4:2:0
Битовая глубина : 8 бит
Тип развёртки : Прогрессивная
Метод сжатия : С потерями
Бит/(Пиксели*Кадры) : 0.193
Размер потока : 1,24 Гбайт (93%)
Библиотека кодирования : XviD 1.2.1 (UTC 2008-12-04)
Аудио
Идентификатор : 1
Формат : MPEG Audio
Версия формата : Version 1
Профиль формата : Layer 3
Идентификатор кодека : 55
Идентификатор кодека/Подсказка : MP3
Продолжительность : 1 ч. 38 м.
Вид битрейта : Постоянный
Битрейт : 128 Кбит/сек
Каналы : 2 канала
Частота : 48,0 КГц
Метод сжатия : С потерями
Размер потока : 90,6 Мбайт (7%)
Выравнивание : Соединение по промежуткам
Продолжительность промежутка : 40 мс. (1,00 видеокадр)
Время предзагрузки промежутка : 504 мс.
Библиотека кодирования : LAME3.99r
Настройки программы : -m s -V 4 -q 1 -lowpass 17 -b 128
Скриншоты:--Время раздачи: 24/7. До первых 5 скачавших.
Rip by [email protected]
Яндекс.Метрика
Рейтинг@Mail.ru