Последние часы / These Final Hours (Зак Хилдитч / Zak Hilditch) [2013 г., триллер, драма, HDRip] MVO (Чистый звук)

 

Создавать темы 03-Янв-2015 05:41

-Последние часы / These Final Hours- Производство: Австралия
Год выпуска: 2013 г.
Жанр: триллер, драма
Продолжительность: 01:26:31
Мировая премьера: 2 августа 2013
Российская премьера: 25 декабря 2014, «Кино без границ»
Перевод: Профессиональный (многоголосый, закадровый) [Чистый звук]-Режиссер: Зак Хилдитч / Zak Hilditch
В ролях: Сара Снук, Джессика Де Гау, Дэниэл Хеншэлл, Нэйтан Филлипс, Дэвид Филд, Ангури Райс, Кэтерин Бек, Линетт Каррен, Корум Элис-Описание: Это последний день на земле. Через двенадцать часов глобальный катаклизм положит всему конец. Джеймс держит путь через город, погрузившийся в хаос, чтобы попасть на последнюю вечеринку. По пути он спасает жизнь маленькой девочки по имени Роуз, которая отчаянно ищет своего отца.- -Качество видео: HDRip
Контейнер: AVI
Видео кодек: XviD
Аудио кодек: AC3
Видео: 720x304 (2.37:1), 24.000 fps, XviD build 50 ~1869 kbps avg, 0.36 bit/pixel
Аудио: 48 kHz, AC3 Dolby Digital, 2/0 (L,R) ch, ~384 kbps
Cубтитры: отсутствуют

Media Info

General
Complete name : D:\These.Final.Hours.2013.HDRip.1400MB.avi
Format : AVI
Format/Info : Audio Video Interleave
File size : 1.37 GiB
Duration : 1h 26mn
Overall bit rate : 2 263 Kbps
Writing application : VirtualDubMod 1.5.10.3 | www.virtualdub-fr.org || (build 2550/release)
Video
ID : 0
Format : MPEG-4 Visual
Format profile : Advanced [email protected]
Format settings, BVOP : 3
Format settings, QPel : No
Format settings, GMC : No warppoints
Format settings, Matrix : Custom
Codec ID : XVID
Codec ID/Hint : XviD
Duration : 1h 26mn
Bit rate : 1 869 Kbps
Width : 720 pixels
Height : 304 pixels
Display aspect ratio : 2.35:1
Frame rate : 24.000 fps
Color space : YUV
Chroma subsampling : 4:2:0
Bit depth : 8 bits
Scan type : Progressive
Compression mode : Lossy
Bits/(Pixel*Frame) : 0.356
Stream size : 1.13 GiB (83%)
Writing library : XviD 1.2.1 (UTC 2008-12-04)
Audio
ID : 1
Format : AC-3
Format/Info : Audio Coding 3
Mode extension : CM (complete main)
Format settings, Endianness : Big
Codec ID : 2000
Duration : 1h 26mn
Bit rate mode : Constant
Bit rate : 384 Kbps
Channel(s) : 2 channels
Channel positions : Front: L R
Sampling rate : 48.0 KHz
Bit depth : 16 bits
Compression mode : Lossy
Stream size : 238 MiB (17%)
Alignment : Split accross interleaves
Interleave, duration : 42 ms (1.00 video frame)
Interleave, preload duration : 500 ms

Скриншоты

Яндекс.Метрика
Рейтинг@Mail.ru