[ Сегодня на трекере фрилич! Идет свободное скачивание без начисления Download ]

Переговорщик / The Negotiator (Ф. Гэри Грей / F. Gary Gray) [1998 г., Триллер, драма, детектив, BDRip, 720р] Dub + MVO + AVO (Гаврилов, Живов, Кашкин) + original (Eng) + Sub (Rus, Eng)

 

Создавать темы 03-Янв-2015 05:34

-Переговорщик / The Negotiator-- Год выпуска: 1998
Производство: США, Германия
Жанр: Триллер, драма, детектив
Продолжительность: 02:19:35-Перевод 1: Профессиональный (полное дублирование) Мост-Видео
Перевод 2: Профессиональный (многоголосый закадровый) Varus-Video (c VHS)
Перевод 3: Авторский (одноголосый закадровый) Гаврилов
Перевод 4: Авторский (одноголосый закадровый) Живов
Перевод 5: Авторский (одноголосый закадровый) Кашкин (Первомайский)
-Оригинальный аудиопоток: английский
Субтитры: русские, английские
Режиссер: Ф. Гэри Грей / F. Gary Gray
В ролях: Сэмюэл Л. Джексон / Samuel L. Jackson, Кевин Спэйси / Kevin Spacey, Дэвид Морс / David Morse, Джон Спенсер / John Spencer, Дж. Т. Уолш / J. T. Walsh, Рон Рифкин / Ron Rifkin, Реджина Тэйлор / Regina Taylor, Брюс Битти / Bruce Beatty, Шаван Фэллон / Siobhan Fallon, Пол Джаматти / Paul Giamatti-Описание: Переговорщик — это полицейский, ведущий переговоры с преступниками или террористами, захватившими заложников. Герой картины Дэнни Роумэн — один из лучших «переговорщиков» в Чикаго. Напарник и близкий друг Роумэна сообщает ему, что в Фонде помощи инвалидам, членом правления которого был Дэнни, расхищают деньги, а он знает, кто за этим стоит. Это Терренс Найбаум из отдела внутренних расследований.
Друг назначил Дэнни встречу в парке, намереваясь сообщить ему полные данные, но, когда Дэнни пришел, тот уже был застрелен. На следующий день к нему с обыском приходит именно Найбаум. У Роумэна находят банковские документы на крупные суммы денег. Его обвиняют в убийстве друга. Понимая, что шансов доказать свою невиновность нет, Роумэн берет Найбаума и еще трех человек в заложники.
Он не может доверять полицейским своего участка, так как знает, что среди них убийцы его напарника, и требует, чтобы в качестве переговорщика был приглашен специалист с другого участка. Сумеет ли Роумэн доказать свою невиновность?- -Источник/Качество: BD/BDRip, 720p
Формат: MKV
Видео кодек: H.264
Аудио кодек: AC3
Видео: 1280x536, 23.976 fps, 4 578 Kbps, 0.278 bit/pixel
Аудио 1: 48 kHz AC3 Dolby Digital 3/2 (L,C,R,l,r) + LFE ch 384 kbps - дубляж
Аудио 2: 48 kHz, AC3 Dolby Digital, 2/0 (L,R) ch, ~192.00 kbps - закадровый
Аудио 3: 48 kHz AC3 Dolby Digital 3/2 (L,C,R,l,r) + LFE ch 448 kbps - Гаврилов
Аудио 4: 48 kHz AC3 Dolby Digital 3/2 (L,C,R,l,r) + LFE ch 448 kbps - Живов
Аудио 5: 48 kHz, AC3 Dolby Digital, 2/0 (L,R) ch, ~ 256kbps - Кашкин
Аудио 6: Dolby AC3 48000Hz 6ch 640Kbps - Оригинал

Награды

Сатурн, 1999 год
Номинации (1):
Лучший приключенческий фильм, боевик или триллер

Знаете ли вы, что...

Сцены Роумэна и заложников в офисе отдела внутренних расследований были сняты в студии в Лос-Анджелесе. Чтобы смоделировать чикагский горизонт за окном, был создан плакат 48x12 метров, изображающий вид из окон 20-ого этажа здания 77 West Wacker Drive в Чикаго.

Рецензия

«Ты обманываешь меня? Черт, да тебе же деньги платят, за то, что ты обманываешь людей!» (с)
В наше время тяжело найти действительно атмосферный и держащий в напряжении триллер. Поэтому нередко приходиться обращаться к фильмам дней давно минувших. Какое счастье, что порой эти фильмы свежей хваленых штампованных голливудских блокбастеров.
Признаться, я услышал об этом фильме первый раз неделю назад. Киноман, тоже мне. Думаю, раз там Кевин Спейси, значит кино хорошее. Рейтинг, отзывы, все советуют посмотреть. А знаете, рейтинг и отзывы порой ничто. Но какое счастье, что в этот раз все оказались правы.
Триллер об оклеветанном полицейском переговорщике, который не нашел другого выхода кроме как выбивать признания из своего лживого босса под страхом смерти, заодно взяв в заложники его секретаршу, своего коллегу по работе и мелкого мошенника. Вроде бы все ясно, предстоит тяжкое мучение, растянутое на 2 часа. Но только не здесь.
Помните когда я сказал про атмосферу и напряжение. Здесь они оправдывают себя на все сто. Ты не знаешь что будет дальше. Ты не знаешь кого он убьет, ты не знаешь как поступят власти, ты не знаешь, кто прав, а кто виноват. А самое главное, что ты на паузу нажать не можешь, ведь страсть, как хочется все это узнать. Вот это называется триллер, в прямом смысле слова.
Все это атмосферное счастье дополняет отличная игра актеров. Дэнни Роман, подставленный переговорщик, отлично сыгранный Самюелем Л. Джексоном, или лейтенант Крис Сабиан, просто великолепно воплощенный все тем же Кевином Спейси, который вообще не умеет играть плохо. Да даже Дэвид Морс и Пол Джиаматти смотрятся органично и вписываются на все двести. Ничего ни убавить не прибавить. Почти шедевр.
Итог. Идеальный триллер. Идеальный боевик. Все это с налетом криминала и детектива и присыпано щепоткой драмы. Получается просто захватывающее действо, которое не отрывает тебя от экрана все два с половиной часа, потраченные на просмотр. Честно. рекомендуется всем, особенно любителям боевиков и триллеров. Посмотреть стоит, даже если потом не понравится, что практически невозможно.
9 января 2010 / koshmar230

Media Info

General
Unique ID : 221665600945323420405361951250006873293 (0xA6C33DE9E3AF9E089799670E1D5F14CD)
Complete name : F:\Фильмы архив\_триллеры\Переговорщик (The Negotiator, 1998, HD, 720) dub-pm-Gavrilov-Jivov-Kashkin-eng.mkv
Format : Matroska
Format version : Version 2
File size : 6.91 GiB
Duration : 2h 19mn
Overall bit rate : 7 083 Kbps
Movie name : rip by Gross
Encoded date : UTC 2015-01-02 17:50:54
Writing application : mkvmerge v4.7.0 ('Just Like You Imagined') сборка от Apr 21 2011 01:13:14
Writing library : libebml v1.2.0 + libmatroska v1.1.0
Video
ID : 1
Format : AVC
Format/Info : Advanced Video Codec
Format profile : [email protected]
Format settings, CABAC : Yes
Format settings, ReFrames : 11 frames
Codec ID : V_MPEG4/ISO/AVC
Duration : 2h 19mn
Bit rate : 4 574 Kbps
Width : 1 280 pixels
Height : 536 pixels
Display aspect ratio : 2.40:1
Frame rate mode : Constant
Frame rate : 23.976 fps
Color space : YUV
Chroma subsampling : 4:2:0
Bit depth : 8 bits
Scan type : Progressive
Bits/(Pixel*Frame) : 0.278
Stream size : 4.46 GiB (65%)
Writing library : x264 core 142 r2431 ac76440
Encoding settings : cabac=1 / ref=11 / deblock=1:-3:-3 / analyse=0x3:0x133 / me=umh / subme=11 / psy=1 / psy_rd=1.05:0.15 / mixed_ref=1 / me_range=32 / chroma_me=1 / trellis=2 / 8x8dct=1 / cqm=0 / deadzone=21,11 / fast_pskip=0 / chroma_qp_offset=-3 / threads=3 / lookahead_threads=2 / sliced_threads=0 / nr=0 / decimate=1 / interlaced=0 / bluray_compat=0 / constrained_intra=0 / bframes=9 / b_pyramid=2 / b_adapt=2 / b_bias=0 / direct=1 / weightb=1 / open_gop=0 / weightp=2 / keyint=250 / keyint_min=23 / scenecut=40 / intra_refresh=0 / rc=crf / mbtree=0 / crf=18.0 / qcomp=0.60 / qpmin=0 / qpmax=69 / qpstep=4 / ip_ratio=1.40 / pb_ratio=1.30 / aq=1:1.00
Language : English
Default : Yes
Forced : No
Audio #1
ID : 2
Format : AC-3
Format/Info : Audio Coding 3
Mode extension : CM (complete main)
Format settings, Endianness : Big
Codec ID : A_AC3
Duration : 2h 19mn
Bit rate mode : Constant
Bit rate : 384 Kbps
Channel count : 6 channels
Channel positions : Front: L C R, Side: L R, LFE
Sampling rate : 48.0 KHz
Bit depth : 16 bits
Compression mode : Lossy
Stream size : 383 MiB (5%)
Title : dub (R5)
Language : Russian
Default : Yes
Forced : Yes
Audio #2
ID : 3
Format : AC-3
Format/Info : Audio Coding 3
Mode extension : CM (complete main)
Format settings, Endianness : Big
Codec ID : A_AC3
Duration : 2h 19mn
Bit rate mode : Constant
Bit rate : 192 Kbps
Channel count : 2 channels
Channel positions : Front: L R
Sampling rate : 48.0 KHz
Bit depth : 16 bits
Compression mode : Lossy
Stream size : 192 MiB (3%)
Title : pm (Varus-Video) VHS
Language : Russian
Default : No
Forced : No
Audio #3
ID : 4
Format : AC-3
Format/Info : Audio Coding 3
Mode extension : CM (complete main)
Format settings, Endianness : Big
Codec ID : A_AC3
Duration : 2h 19mn
Bit rate mode : Constant
Bit rate : 448 Kbps
Channel count : 6 channels
Channel positions : Front: L C R, Side: L R, LFE
Sampling rate : 48.0 KHz
Bit depth : 16 bits
Compression mode : Lossy
Stream size : 447 MiB (6%)
Title : A1 (Gavrilov)
Language : Russian
Default : No
Forced : No
Audio #4
ID : 5
Format : AC-3
Format/Info : Audio Coding 3
Mode extension : CM (complete main)
Format settings, Endianness : Big
Codec ID : A_AC3
Duration : 2h 19mn
Bit rate mode : Constant
Bit rate : 448 Kbps
Channel count : 6 channels
Channel positions : Front: L C R, Side: L R, LFE
Sampling rate : 48.0 KHz
Bit depth : 16 bits
Compression mode : Lossy
Stream size : 447 MiB (6%)
Title : A1 (Jivov)
Language : Russian
Default : No
Forced : No
Audio #5
ID : 6
Format : AC-3
Format/Info : Audio Coding 3
Mode extension : CM (complete main)
Format settings, Endianness : Big
Codec ID : A_AC3
Duration : 2h 19mn
Bit rate mode : Constant
Bit rate : 256 Kbps
Channel count : 2 channels
Channel positions : Front: L R
Sampling rate : 48.0 KHz
Bit depth : 16 bits
Compression mode : Lossy
Delay relative to video : 10ms
Stream size : 256 MiB (4%)
Title : A1 (Kashkin)
Language : Russian
Default : No
Forced : No
Audio #6
ID : 7
Format : AC-3
Format/Info : Audio Coding 3
Mode extension : CM (complete main)
Format settings, Endianness : Big
Codec ID : A_AC3
Duration : 2h 19mn
Bit rate mode : Constant
Bit rate : 640 Kbps
Channel count : 6 channels
Channel positions : Front: L C R, Side: L R, LFE
Sampling rate : 48.0 KHz
Bit depth : 16 bits
Compression mode : Lossy
Stream size : 639 MiB (9%)
Title : original
Language : English
Default : No
Forced : No
Text #1
ID : 8
Format : UTF-8
Codec ID : S_TEXT/UTF8
Codec ID/Info : UTF-8 Plain Text
Language : Russian
Default : Yes
Forced : No
Text #2
ID : 9
Format : UTF-8
Codec ID : S_TEXT/UTF8
Codec ID/Info : UTF-8 Plain Text
Language : English
Default : No
Forced : No

Лог Х.264

x264 [info]: frame I:1867 Avg QP:14.82 size: 82800
x264 [info]: frame P:40538 Avg QP:16.14 size: 44943
x264 [info]: frame B:158384 Avg QP:18.22 size: 18669
x264 [info]: consecutive B-frames: 2.0% 2.7% 5.9% 13.6% 13.4% 44.8% 8.0% 4.3% 2.5% 2.8%
x264 [info]: mb I I16..4: 8.2% 81.3% 10.5%
x264 [info]: mb P I16..4: 1.5% 24.6% 1.2% P16..4: 24.0% 31.5% 11.8% 1.6% 0.1% skip: 3.7%
x264 [info]: mb B I16..4: 0.4% 2.3% 0.1% B16..8: 36.1% 26.2% 4.8% direct: 8.4% skip:21.8% L0:46.3% L1:41.3% BI:12.3%
x264 [info]: 8x8 transform intra:87.4% inter:49.6%
x264 [info]: coded y,uvDC,uvAC intra: 90.8% 95.5% 88.3% inter: 35.0% 37.9% 21.6%
x264 [info]: i16 v,h,dc,p: 58% 5% 6% 31%
x264 [info]: i8 v,h,dc,ddl,ddr,vr,hd,vl,hu: 11% 8% 13% 9% 12% 12% 11% 12% 13%
x264 [info]: i4 v,h,dc,ddl,ddr,vr,hd,vl,hu: 15% 8% 7% 9% 14% 14% 12% 10% 11%
x264 [info]: i8c dc,h,v,p: 56% 15% 13% 16%
x264 [info]: Weighted P-Frames: Y:17.3% UV:14.3%
x264 [info]: ref P L0: 40.7% 6.8% 21.1% 8.2% 6.8% 4.5% 4.1% 2.2% 2.1% 1.6% 1.6% 0.3% 0.0%
x264 [info]: ref B L0: 65.4% 14.7% 7.2% 3.9% 2.7% 2.3% 1.7% 1.1% 0.6% 0.3%
x264 [info]: ref B L1: 91.2% 8.8%
x264 [info]: kb/s:4712.74
encoded 200789 frames, 1.45 fps, 4712.74 kb/s

Скриншоты

Доп. информация

Автор рипа:
За исходник видео спасибо lefevr (Кинозал)
Дороги дубляж, Гаврилов, Живов перекодированы из этого релиза.
За остальные дорожки спасибо:
Xxllxx (Тру)– Варус Видео
angelseven77 А.Кашкин
-
Яндекс.Метрика
Рейтинг@Mail.ru