(Chanson) Сергей Трофимов - Чёрное и Белое - 2014 [FLAC, tracks+.cue, lossless]

 

Создавать темы 03-Янв-2015 00:45

-Сергей Трофимов / Чёрное и Белое-- Год издания: 2014
Страна: Россия
Жанр: Chanson
Продолжительность: 00:57:41-Лейбл издания: United music group
Страна-выпуска диска: Россия
Номер по каталогу: UMGCD14-441
Формат: FLAC
Битрейт аудио: lossless
Тип рипа: tracks+.cue
Наличие сканов в содержимом раздачи: да
-

Трэклист

01.Ч/Б (03:58)
02.Рассвет (03:14)
03.Африка (03:15)
04.Оппозиционная (02:16)
05.Дядя Вова (03:55)
06.Интернет (03:44)
07.205-16-03 (03:49)
08.Помолись (03:36)
09.Казачья (04:00)
10.Поэт и алигархи (02:57)
11.Песня доброго самаритянина (02:28)
12.Жестокий романс (02:33)
13.Боксёрская (03:19)
14.Притча (02:38)
15.Кораблик (03:21)
16.Я ещё живой (03:44)
17.Свет (04:48)
-

Лог создания рипа

Exact Audio Copy V1.0 beta 3 from 29. August 2011
Отчёт EAC об извлечении, выполненном 21. марта 2014, 12:39
Сергей Трофимов / Чёрное и Белое
Дисковод: PIONEER DVD-RW  DVR-218L   Adapter: 0  ID: 0
Режим чтения                 : Достоверность
Использование точного потока : Да
Отключение кэша аудио        : Да
Использование указателей C2  : Нет
Коррекция смещения при чтении                     : 6
Способность читать области Lead-in и Lead-out     : Нет
Заполнение пропущенных сэмплов тишиной            : Да
Удаление блоков с тишиной в начале и конце        : Нет
При вычислениях CRC использовались нулевые сэмплы : Да
Интерфейс                                         : Встроенный Win32-интерфейс для Win NT/2000
Обработка зазоров                                 : Добавлено к предыдущему треку
Выходной формат          : Пользовательский кодировщик
Выбранный битрейт        : 128 kBit/s
Качество                 : Высокий
Добавление ID3-тега      : Нет
Утилита сжатия           : C:\Program Files (x86)\Exact Audio Copy\Flac\flac.exe
Дополнительные параметры : -V -7 -T "Genre=%genre%" -T "Artist=%artist%" -T "Title=%title%" -T "Album=%albumtitle%" -T "Date=%year%" -T "Tracknumber=%tracknr%" -T "Comment=%comment%" %source%
TOC извлечённого CD
Трек |   Старт  | Длительность | Начальный сектор | Конечный сектор
---------------------------------------------------------------------
1  |  0:00.00 |    3:58.54   |           0      |      17903
2  |  3:58.54 |    3:14.00   |       17904      |      32453
3  |  7:12.54 |    3:15.45   |       32454      |      47123
4  | 10:28.24 |    2:16.04   |       47124      |      57327
5  | 12:44.28 |    3:55.33   |       57328      |      74985
6  | 16:39.61 |    3:44.08   |       74986      |      91793
7  | 20:23.69 |    3:49.70   |       91794      |     109038
8  | 24:13.64 |    3:36.28   |      109039      |     125266
9  | 27:50.17 |    4:00.04   |      125267      |     143270
10  | 31:50.21 |    2:57.24   |      143271      |     156569
11  | 34:47.45 |    2:28.15   |      156570      |     167684
12  | 37:15.60 |    2:33.00   |      167685      |     179159
13  | 39:48.60 |    3:19.72   |      179160      |     194156
14  | 43:08.57 |    2:38.31   |      194157      |     206037
15  | 45:47.13 |    3:21.56   |      206038      |     221168
16  | 49:08.69 |    3:44.12   |      221169      |     237980
17  | 52:53.06 |    4:48.58   |      237981      |     259638
Трек  1
Имя файла F:\_МУЗЫКА\Сергей Трофимов - Чёрное и Белое (2014)\01 Ч,Б.wav
Длина предзазора  0:00:02.00
Пиковый уровень 98.8 %
Скорость извлечения 0.9 X
Качество трека 99.9 %
CRC теста DF0B254C
CRC копии DF0B254C
Трек не обнаружен в базе AccurateRip
Копирование... OK
Трек  2
Имя файла F:\_МУЗЫКА\Сергей Трофимов - Чёрное и Белое (2014)\02 Рассвет.wav
Длина предзазора  0:00:02.00
Пиковый уровень 98.8 %
Скорость извлечения 1.1 X
Качество трека 100.0 %
CRC теста 8A246C78
CRC копии 8A246C78
Трек не обнаружен в базе AccurateRip
Копирование... OK
Трек  3
Имя файла F:\_МУЗЫКА\Сергей Трофимов - Чёрное и Белое (2014)\03 Африка.wav
Длина предзазора  0:00:02.00
Пиковый уровень 98.5 %
Скорость извлечения 1.2 X
Качество трека 100.0 %
CRC теста 93478515
CRC копии 93478515
Трек не обнаружен в базе AccurateRip
Копирование... OK
Трек  4
Имя файла F:\_МУЗЫКА\Сергей Трофимов - Чёрное и Белое (2014)\04 Оппозиционная.wav
Длина предзазора  0:00:02.00
Пиковый уровень 98.8 %
Скорость извлечения 1.2 X
Качество трека 100.0 %
CRC теста 66E5D762
CRC копии 66E5D762
Трек не обнаружен в базе AccurateRip
Копирование... OK
Трек  5
Имя файла F:\_МУЗЫКА\Сергей Трофимов - Чёрное и Белое (2014)\05 Дядя Вова.wav
Длина предзазора  0:00:02.00
Пиковый уровень 98.8 %
Скорость извлечения 1.4 X
Качество трека 100.0 %
CRC теста 7CABC99A
CRC копии 7CABC99A
Трек не обнаружен в базе AccurateRip
Копирование... OK
Трек  6
Имя файла F:\_МУЗЫКА\Сергей Трофимов - Чёрное и Белое (2014)\06 Интернет.wav
Длина предзазора  0:00:02.00
Пиковый уровень 98.8 %
Скорость извлечения 1.3 X
Качество трека 99.9 %
CRC теста 44160A58
CRC копии 44160A58
Трек не обнаружен в базе AccurateRip
Копирование... OK
Трек  7
Имя файла F:\_МУЗЫКА\Сергей Трофимов - Чёрное и Белое (2014)\07 205-16-03.wav
Длина предзазора  0:00:02.00
Пиковый уровень 98.8 %
Скорость извлечения 1.6 X
Качество трека 100.0 %
CRC теста AEEF6D55
CRC копии AEEF6D55
Трек не обнаружен в базе AccurateRip
Копирование... OK
Трек  8
Имя файла F:\_МУЗЫКА\Сергей Трофимов - Чёрное и Белое (2014)\08 Помолись.wav
Длина предзазора  0:00:02.00
Пиковый уровень 98.5 %
Скорость извлечения 1.6 X
Качество трека 100.0 %
CRC теста B1F14DEB
CRC копии B1F14DEB
Трек не обнаружен в базе AccurateRip
Копирование... OK
Трек  9
Имя файла F:\_МУЗЫКА\Сергей Трофимов - Чёрное и Белое (2014)\09 Казачья.wav
Длина предзазора  0:00:02.00
Пиковый уровень 98.8 %
Скорость извлечения 1.7 X
Качество трека 100.0 %
CRC теста 7EBF60E5
CRC копии 7EBF60E5
Трек не обнаружен в базе AccurateRip
Копирование... OK
Трек 10
Имя файла F:\_МУЗЫКА\Сергей Трофимов - Чёрное и Белое (2014)\10 Поэт и алигархи.wav
Длина предзазора  0:00:02.00
Пиковый уровень 98.8 %
Скорость извлечения 1.7 X
Качество трека 100.0 %
CRC теста 3A6A9126
CRC копии 3A6A9126
Трек не обнаружен в базе AccurateRip
Копирование... OK
Трек 11
Имя файла F:\_МУЗЫКА\Сергей Трофимов - Чёрное и Белое (2014)\11 Песня доброго самаритянина.wav
Длина предзазора  0:00:02.00
Пиковый уровень 98.8 %
Скорость извлечения 1.7 X
Качество трека 100.0 %
CRC теста 781B720A
CRC копии 781B720A
Трек не обнаружен в базе AccurateRip
Копирование... OK
Трек 12
Имя файла F:\_МУЗЫКА\Сергей Трофимов - Чёрное и Белое (2014)\12 Жестокий романс.wav
Длина предзазора  0:00:02.00
Пиковый уровень 98.8 %
Скорость извлечения 1.8 X
Качество трека 100.0 %
CRC теста DB14B0C3
CRC копии DB14B0C3
Трек не обнаружен в базе AccurateRip
Копирование... OK
Трек 13
Имя файла F:\_МУЗЫКА\Сергей Трофимов - Чёрное и Белое (2014)\13 Боксёрская.wav
Длина предзазора  0:00:02.00
Пиковый уровень 82.2 %
Скорость извлечения 1.9 X
Качество трека 100.0 %
CRC теста E4303FEB
CRC копии E4303FEB
Трек не обнаружен в базе AccurateRip
Копирование... OK
Трек 14
Имя файла F:\_МУЗЫКА\Сергей Трофимов - Чёрное и Белое (2014)\14 Притча.wav
Длина предзазора  0:00:02.00
Пиковый уровень 98.8 %
Скорость извлечения 1.9 X
Качество трека 100.0 %
CRC теста 84196A6A
CRC копии 84196A6A
Трек не обнаружен в базе AccurateRip
Копирование... OK
Трек 15
Имя файла F:\_МУЗЫКА\Сергей Трофимов - Чёрное и Белое (2014)\15 Кораблик.wav
Длина предзазора  0:00:02.00
Пиковый уровень 98.8 %
Скорость извлечения 2.0 X
Качество трека 100.0 %
CRC теста 9BC49F3D
CRC копии 9BC49F3D
Трек не обнаружен в базе AccurateRip
Копирование... OK
Трек 16
Имя файла F:\_МУЗЫКА\Сергей Трофимов - Чёрное и Белое (2014)\16 Я ещё живой.wav
Длина предзазора  0:00:02.00
Пиковый уровень 98.8 %
Скорость извлечения 2.1 X
Качество трека 100.0 %
CRC теста 51446A39
CRC копии 51446A39
Трек не обнаружен в базе AccurateRip
Копирование... OK
Трек 17
Имя файла F:\_МУЗЫКА\Сергей Трофимов - Чёрное и Белое (2014)\17 Свет.wav
Длина предзазора  0:00:02.00
Пиковый уровень 98.8 %
Скорость извлечения 2.2 X
Качество трека 100.0 %
CRC теста 1CA898B8
CRC копии 1CA898B8
Трек не обнаружен в базе AccurateRip
Копирование... OK
Ни одного трека нет в базе AccurateRip
Ошибок не произошло
Конец отчёта

Индексная карта (non-compilant .cue)

REM GENRE Chanson
REM DATE 2014
REM DISCID DC0D8511
REM COMMENT "ExactAudioCopy v1.0b3"
PERFORMER "Сергей Трофимов"
TITLE "Чёрное и Белое"
FILE "01 Ч-Б.wav" WAVE
TRACK 01 AUDIO
TITLE "Ч/Б"
PERFORMER "Сергей Трофимов"
INDEX 01 00:00:00
TRACK 02 AUDIO
TITLE "Рассвет"
PERFORMER "Сергей Трофимов"
INDEX 00 03:56:54
FILE "02 Рассвет.wav" WAVE
INDEX 01 00:00:00
TRACK 03 AUDIO
TITLE "Африка"
PERFORMER "Сергей Трофимов"
INDEX 00 03:12:00
FILE "03 Африка.wav" WAVE
INDEX 01 00:00:00
TRACK 04 AUDIO
TITLE "Оппозиционная"
PERFORMER "Сергей Трофимов"
INDEX 00 03:13:45
FILE "04 Оппозиционная.wav" WAVE
INDEX 01 00:00:00
TRACK 05 AUDIO
TITLE "Дядя Вова"
PERFORMER "Сергей Трофимов"
INDEX 00 02:14:04
FILE "05 Дядя Вова.wav" WAVE
INDEX 01 00:00:00
TRACK 06 AUDIO
TITLE "Интернет"
PERFORMER "Сергей Трофимов"
INDEX 00 03:53:33
FILE "06 Интернет.wav" WAVE
INDEX 01 00:00:00
TRACK 07 AUDIO
TITLE "205-16-03"
PERFORMER "Сергей Трофимов"
INDEX 00 03:42:08
FILE "07 205-16-03.wav" WAVE
INDEX 01 00:00:00
TRACK 08 AUDIO
TITLE "Помолись"
PERFORMER "Сергей Трофимов"
INDEX 00 03:47:70
FILE "08 Помолись.wav" WAVE
INDEX 01 00:00:00
TRACK 09 AUDIO
TITLE "Казачья"
PERFORMER "Сергей Трофимов"
INDEX 00 03:34:28
FILE "09 Казачья.wav" WAVE
INDEX 01 00:00:00
TRACK 10 AUDIO
TITLE "Поэт и алигархи"
PERFORMER "Сергей Трофимов"
INDEX 00 03:58:04
FILE "10 Поэт и алигархи.wav" WAVE
INDEX 01 00:00:00
TRACK 11 AUDIO
TITLE "Песня доброго самаритянина"
PERFORMER "Сергей Трофимов"
INDEX 00 02:55:24
FILE "11 Песня доброго самаритянина.wav" WAVE
INDEX 01 00:00:00
TRACK 12 AUDIO
TITLE "Жестокий романс"
PERFORMER "Сергей Трофимов"
INDEX 00 02:26:15
FILE "12 Жестокий романс.wav" WAVE
INDEX 01 00:00:00
TRACK 13 AUDIO
TITLE "Боксёрская"
PERFORMER "Сергей Трофимов"
INDEX 00 02:31:00
FILE "13 Боксёрская.wav" WAVE
INDEX 01 00:00:00
TRACK 14 AUDIO
TITLE "Притча"
PERFORMER "Сергей Трофимов"
INDEX 00 03:17:72
FILE "14 Притча.wav" WAVE
INDEX 01 00:00:00
TRACK 15 AUDIO
TITLE "Кораблик"
PERFORMER "Сергей Трофимов"
INDEX 00 02:36:31
FILE "15 Кораблик.wav" WAVE
INDEX 01 00:00:00
TRACK 16 AUDIO
TITLE "Я ещё живой"
PERFORMER "Сергей Трофимов"
INDEX 00 03:19:56
FILE "16 Я ещё живой.wav" WAVE
INDEX 01 00:00:00
TRACK 17 AUDIO
TITLE "Свет"
PERFORMER "Сергей Трофимов"
INDEX 00 03:42:12
FILE "17 Свет.wav" WAVE
INDEX 01 00:00:00

auCDtect

-----------------------
DON'T MODIFY THIS FILE
-----------------------
PERFORMER: auCDtect Task Manager, ver. 1.5.1RC6 build 1.5.1.7
Copyright (c) 2008-2010 y-soft. All rights reserved
http://y-soft.org
ANALYZER: auCDtect: CD records authenticity detector, version 0.8.2
Copyright (c) 2004 Oleg Berngardt. All rights reserved.
Copyright (c) 2004 Alexander Djourik. All rights reserved.
FILE: 17 Свет.flac
Size: 33909291 Hash: 1BCCE9F3993401C45017023387E8A0CD Accuracy: -m0
Conclusion: CDDA 100%
Signature: 36507D595C7AA0741FE5A70D8325F08562B015F9
FILE: 16 Я ещё живой.flac
Size: 29353223 Hash: 3AE6BB8277A37DECC092280389E5B7AF Accuracy: -m0
Conclusion: CDDA 100%
Signature: D6C26F057F6A4E66927240C15608F375443A1928
FILE: 15 Кораблик.flac
Size: 25431593 Hash: 2EBDB4CE00DF4346F4BD05CC7C8DAD95 Accuracy: -m0
Conclusion: CDDA 100%
Signature: DD50FA7B9022AFC46905108BE4884D3BD2A07532
FILE: 14 Притча.flac
Size: 20426242 Hash: 52DC3EDEE6F1AE5B083F3565D1C0DCA4 Accuracy: -m0
Conclusion: CDDA 100%
Signature: 1F0CD41EA166C89BBAB29AC1026B0BAD22B46541
FILE: 13 Боксёрская.flac
Size: 18384140 Hash: 0178F356CFB35A7F3975095E20282F28 Accuracy: -m0
Conclusion: CDDA 100%
Signature: B4D5BDCA25A2D1783303830643BDF9E71E1C0B76
FILE: 12 Жестокий романс.flac
Size: 17727492 Hash: 2549896CEE6595A9329232BC0F1A4696 Accuracy: -m0
Conclusion: CDDA 99%
Signature: 8C263C660FF98CF6ED2CE681FDA7C54A3560EF6C
FILE: 11 Песня доброго самаритянина.flac
Size: 17951836 Hash: B25C95BF7349A9AC40AE8D560071D7FD Accuracy: -m0
Conclusion: CDDA 100%
Signature: 78890567DBCCF1F8371D0ADA6D3381C815696CB9
FILE: 10 Поэт и алигархи.flac
Size: 17160715 Hash: CB7632DAC95A2FC06B181F404DCE341F Accuracy: -m0
Conclusion: CDDA 100%
Signature: 910173EA65B703B6D0948D826852F0EDEBB7D5BD
FILE: 09 Казачья.flac
Size: 30415885 Hash: A139002EE6419C6F1D7335C6895F1E83 Accuracy: -m0
Conclusion: CDDA 100%
Signature: 54EB6F3D8BA5DFD458EBFFF227A1D266440F859D
FILE: 08 Помолись.flac
Size: 26873066 Hash: 6888F922740D7FF7174E6FD9C17AB570 Accuracy: -m0
Conclusion: CDDA 100%
Signature: FA7CB4187FE5EFB5FAAE2AFE60F093F708F3A723
FILE: 07 205-16-03.flac
Size: 29804114 Hash: A8E35DABE436779A0783821A7584C211 Accuracy: -m0
Conclusion: CDDA 100%
Signature: BF9F5C011C80290AF00E319C951FDDC0509B6CFE
FILE: 06 Интернет.flac
Size: 28994571 Hash: 5C1295B14DDBFC081AAD9D0EAC4C02D8 Accuracy: -m0
Conclusion: CDDA 100%
Signature: C41D4497631DAD02A47D6938984A72B7941C3082
FILE: 05 Дядя Вова.flac
Size: 30941391 Hash: 13DD5FFF3A0AEB5BE8EBD937A4FC10A6 Accuracy: -m0
Conclusion: CDDA 100%
Signature: C9E766977DAF6E04C2737961CE4B82EA4998FE87
FILE: 04 Оппозиционная.flac
Size: 14279917 Hash: 749A43E1EA06ADA65BAC8F1510D1B2B9 Accuracy: -m0
Conclusion: CDDA 100%
Signature: E519537F47489F07D2E1FAF9D0322D846A690260
FILE: 03 Африка.flac
Size: 24440458 Hash: 4A15BE97C80849FBD707C8FA5BE81C0B Accuracy: -m0
Conclusion: CDDA 100%
Signature: C90E7FCDD0E32FE19D438BB8DDD9D219F5EDA679
FILE: 02 Рассвет.flac
Size: 24615495 Hash: C4ADED85D81A33A2C4ADC94E4C6AD1F5 Accuracy: -m0
Conclusion: CDDA 100%
Signature: C67108DAD741F6C3E37A088C02811A721EF47CCC
FILE: 01 Ч-Б.flac
Size: 29831271 Hash: DAB9772DAE34B0FB0D92656460C38BF8 Accuracy: -m0
Conclusion: CDDA 100%
Signature: B827E47036D608C23AB638F68E7255D358966E1C
--
Яндекс.Метрика
Рейтинг@Mail.ru