Шпион по соседству / The Spy Next Door (Брайан Левант / Brian Levant) [2010 г., боевик, комедия, семейный, BDRip, 720p] AVO (Юрий Немахов) + Original (Eng)

 

Создавать темы 02-Янв-2015 18:22

Шпион по соседству / The Spy Next Door
Год выпуска: 2010
Производство: США
Жанр: боевик, комедия, семейный
Продолжительность: 01:34:20
Перевод: Авторский (одноголосый, закадровый) Юрий Немахов
Оригинальный аудиопоток: английский
Субтитры: отсутствуют
Режиссер: Брайан Левант / Brian Levant
В ролях: Джеки Чан, Эмбер Валлетта, Мадлен Кэрролл, Алина Фоли, Магнус Шевинг, Билли Рэй Сайрус, Джордж Лопез, Кэтрин Боэчер, Миа Сталлард
Описание: Агент Боб Хо обезвреживал террористов, ниспровергал диктаторов и крушил целые империи зла, но теперь его ждет самое сложное задание за всю карьеру — на один вечер он должен стать нянькой. Здесь он снова использует профессиональную подготовку и уникальные навыки, однако скоро Боба ждут большие неприятности.
Сэмпл , , КиноПоиск
Качество видео: BDRip
Контейнер: MKV
Стандарт разрешения: 720p
Видео кодек: H.264
Аудио кодек: AC3
Видео: 1280x716, 7070 Kbps, 23.976 кадр/с, 0.322 bt/px
Аудио : AC-3, 448 Kbps, 6 ch, 48.0 KHz Rus Немахов
Аудио : AC-3, 448 Kbps, 6 ch, 48.0 KHz Eng Original

Media Info

G:\загрузки\The_Spy_Next_Door_[Pirat.ca].torrent.mkv
General
Unique ID : 178723888061666054194104553485886690238 (0x8674F801EF63AD3CA53A3A5D5BD613BE)
Complete name : G:\загрузки\The_Spy_Next_Door_[Pirat.ca].torrent.mkv
Format : Matroska
Format version : Version 1
File size : 5.18 GiB
Duration : 1h 34mn
Overall bit rate : 7 868 Kbps
Encoded date : UTC 2015-01-02 06:25:33
Writing application : mkvmerge v2.5.3 ('Boogie') built on Mar 7 2009 15:00:41
Writing library : libebml v0.7.7 + libmatroska v0.8.1
Video #1
ID : 1
Format : AVC
Format/Info : Advanced Video Codec
Format profile : [email protected]
Format settings, CABAC : Yes
Format settings, ReFrames : 9 frames
Codec ID : V_MPEG4/ISO/AVC
Duration : 1h 34mn
Bit rate : 7 070 Kbps
Width : 1 280 pixels
Height : 716 pixels
Display aspect ratio : 16:9
Frame rate mode : Constant
Frame rate : 23.976 fps
Color space : YUV
Chroma subsampling : 4:2:0
Bit depth : 8 bits
Scan type : Progressive
Bits/(Pixel*Frame) : 0.322
Stream size : 4.49 GiB (87%)
Writing library : x264 core 130 r2273 b3065e6
Encoding settings : cabac=1 / ref=9 / deblock=1:-3:-3 / analyse=0x3:0x133 / me=umh / subme=11 / psy=1 / psy_rd=1.00:0.10 / mixed_ref=1 / me_range=32 / chroma_me=1 / trellis=2 / 8x8dct=1 / cqm=0 / deadzone=21,11 / fast_pskip=0 / chroma_qp_offset=-3 / threads=6 / lookahead_threads=1 / sliced_threads=0 / nr=0 / decimate=0 / interlaced=0 / bluray_compat=0 / constrained_intra=0 / bframes=8 / b_pyramid=2 / b_adapt=2 / b_bias=0 / direct=3 / weightb=1 / open_gop=0 / weightp=2 / keyint=250 / keyint_min=23 / scenecut=40 / intra_refresh=0 / rc_lookahead=50 / rc=abr / mbtree=1 / bitrate=7070 / ratetol=1.0 / qcomp=0.60 / qpmin=0 / qpmax=51 / qpstep=4 / ip_ratio=1.40 / aq=1:1.00
Language : English
Default : Yes
Forced : No
Audio #2
ID : 2
Format : AC-3
Format/Info : Audio Coding 3
Mode extension : CM (complete main)
Format settings, Endianness : Big
Codec ID : A_AC3
Duration : 1h 34mn
Bit rate mode : Constant
Bit rate : 448 Kbps
Channel(s) : 6 channels
Channel positions : Front: L C R, Side: L R, LFE
Sampling rate : 48.0 KHz
Bit depth : 16 bits
Compression mode : Lossy
Stream size : 302 MiB (6%)
Title : AVO Немахов
Language : Russian
Default : Yes
Forced : No
Audio #3
ID : 3
Format : AC-3
Format/Info : Audio Coding 3
Mode extension : CM (complete main)
Format settings, Endianness : Big
Codec ID : A_AC3
Duration : 1h 34mn
Bit rate mode : Constant
Bit rate : 448 Kbps
Channel(s) : 6 channels
Channel positions : Front: L C R, Side: L R, LFE
Sampling rate : 48.0 KHz
Bit depth : 16 bits
Compression mode : Lossy
Stream size : 302 MiB (6%)
Language : English
Default : No
Forced : No

log x.264

x264 [info]: frame I:1513  Avg QP:17.46  size:179135
x264 [info]: frame P:27278 Avg QP:20.99 size: 70990
x264 [info]: frame B:106928 Avg QP:22.81 size: 25466
x264 [info]: consecutive B-frames: 2.0% 1.7% 4.7% 15.7% 14.8% 52.7% 5.2% 0.7% 2.5%
x264 [info]: mb I I16..4: 7.7% 71.9% 20.4%
x264 [info]: mb P I16..4: 2.9% 14.7% 1.6% P16..4: 28.1% 35.5% 14.3% 1.9% 0.2% skip: 0.9%
x264 [info]: mb B I16..4: 0.4% 2.0% 0.2% B16..8: 39.5% 23.4% 5.3% direct: 7.8% skip:21.5% L0:43.2% L1:44.1% BI:12.7%
x264 [info]: final ratefactor: 18.76
x264 [info]: 8x8 transform intra:76.3% inter:58.2%
x264 [info]: direct mvs spatial:100.0% temporal:0.0%
x264 [info]: coded y,uvDC,uvAC intra: 85.3% 89.9% 70.3% inter: 40.8% 35.1% 15.2%
x264 [info]: i16 v,h,dc,p: 77% 6% 5% 12%
x264 [info]: i8 v,h,dc,ddl,ddr,vr,hd,vl,hu: 8% 7% 8% 11% 15% 14% 14% 12% 12%
x264 [info]: i4 v,h,dc,ddl,ddr,vr,hd,vl,hu: 10% 10% 6% 9% 15% 14% 13% 11% 12%
x264 [info]: i8c dc,h,v,p: 47% 19% 17% 18%
x264 [info]: Weighted P-Frames: Y:1.7% UV:0.8%
x264 [info]: ref P L0: 41.3% 10.6% 21.9% 6.8% 6.7% 3.8% 4.3% 2.0% 2.4% 0.2% 0.0%
x264 [info]: ref B L0: 76.4% 11.3% 4.9% 2.8% 1.8% 1.6% 0.8% 0.3%
x264 [info]: ref B L1: 94.9% 5.1%
x264 [info]: kb/s:6968.14
x264 [total]: encoded 135719 frames, 1.96 fps, 6968.14 kb/s

Скриншоты

Яндекс.Метрика
Рейтинг@Mail.ru