Мистер Крутой / Yat goh ho yan (Саммо Хунг Кам-Бо / Sammo Hung Kam-Bo) [1998 г., боевик, комедия, криминал, DVDRip-AVC] AVO (Андрей Гаврилов) + Original (Eng)

 

Создавать темы 02-Янв-2015 18:19

Мистер Крутой / Yat goh ho yan
Год выпуска: 1997
Производство: США, Гонконг
Жанр: боевик, комедия, криминал
Продолжительность: 01:24:37
Перевод: Авторский (одноголосый, закадровый) Андрей Гаврилов
Оригинальный аудиопоток: английский
Субтитры: отсутствуют
Режиссер: Саммо Хунг Кам-Бо / Sammo Hung Kam-Bo
В ролях: Джеки Чан, Ричард Нортон, Мики Ли, Гэбриэлль Фицпатрик, Кэрен МакЛаймонт, Винс Полетто, Бэрри Отто, Рэйчел Блэйкли, Саммо Хунг Кам-Бо, Брэдли Джеймс Аллан
Описание: Ведущий кулинарного телешоу в Мельбурне Джеки случайно становится обладателем видеокассеты с записью кровавой разборки между бандами наркоторговцев. На этом спокойные дни для Джеки закончились и превратились в бесконечную гонку на выживание. Он бы с удовольствием отдал кассету бандитам или полиции, ведь на ней улика. Но те не задавали вопросов, а у Джеки все равно не было ответов. Зато было тренированное тело и молниеносные кулаки.
, КиноПоиск
Качество видео: DVDRip-AVC
Контейнер: MKV
Видео кодек: H.264
Аудио кодек: AC3
Видео: 720x302, 25.000fps, 2084Kbps, 0.383 bt/px
Аудио : AC-3, 2 ch, 192 Kbps, 48 kHz Rus Гаврилов
Аудио : AC-3, 2 ch, 192 Kbps, 48 kHz Eng Original

Media Info

G:\загрузки\Mr_Nice_Guy_[Pirat.ca].torrent.mkv
General
Unique ID : 181202706283874235384496408429581012157 (0x88525F2E85817274AF1EFDC9418F8CBD)
Complete name : G:\загрузки\Mr_Nice_Guy_[Pirat.ca].torrent.mkv
Format : Matroska
Format version : Version 1
File size : 1.43 GiB
Duration : 1h 24mn
Overall bit rate : 2 421 Kbps
Encoded date : UTC 2014-12-31 13:27:18
Writing application : mkvmerge v2.5.3 ('Boogie') built on Mar 7 2009 15:00:41
Writing library : libebml v0.7.7 + libmatroska v0.8.1
Video #1
ID : 1
Format : AVC
Format/Info : Advanced Video Codec
Format profile : [email protected]
Format settings, CABAC : Yes
Format settings, ReFrames : 12 frames
Codec ID : V_MPEG4/ISO/AVC
Duration : 1h 24mn
Bit rate : 2 084 Kbps
Width : 720 pixels
Height : 302 pixels
Display aspect ratio : 2.40:1
Frame rate mode : Constant
Frame rate : 25.000 fps
Color space : YUV
Chroma subsampling : 4:2:0
Bit depth : 8 bits
Scan type : Progressive
Bits/(Pixel*Frame) : 0.383
Stream size : 1.18 GiB (82%)
Writing library : x264 core 130 r2273 b3065e6
Encoding settings : cabac=1 / ref=12 / deblock=1:-1:-1 / analyse=0x3:0x133 / me=umh / subme=11 / psy=1 / psy_rd=1.00:0.10 / mixed_ref=1 / me_range=24 / chroma_me=1 / trellis=2 / 8x8dct=1 / cqm=0 / deadzone=21,11 / fast_pskip=0 / chroma_qp_offset=-3 / threads=6 / lookahead_threads=1 / sliced_threads=0 / nr=0 / decimate=0 / interlaced=0 / bluray_compat=0 / constrained_intra=0 / bframes=8 / b_pyramid=2 / b_adapt=2 / b_bias=0 / direct=3 / weightb=1 / open_gop=0 / weightp=2 / keyint=250 / keyint_min=25 / scenecut=40 / intra_refresh=0 / rc_lookahead=50 / rc=abr / mbtree=1 / bitrate=2084 / ratetol=1.0 / qcomp=0.60 / qpmin=0 / qpmax=51 / qpstep=4 / ip_ratio=1.40 / aq=1:1.00
Language : English
Default : Yes
Forced : No
Audio #2
ID : 2
Format : AC-3
Format/Info : Audio Coding 3
Mode extension : CM (complete main)
Format settings, Endianness : Big
Codec ID : A_AC3
Duration : 1h 24mn
Bit rate mode : Constant
Bit rate : 192 Kbps
Channel(s) : 2 channels
Channel positions : Front: L R
Sampling rate : 48.0 KHz
Bit depth : 16 bits
Compression mode : Lossy
Stream size : 116 MiB (8%)
Title : AVO Гаврилов
Language : Russian
Default : Yes
Forced : No
Audio #3
ID : 3
Format : AC-3
Format/Info : Audio Coding 3
Mode extension : CM (complete main)
Format settings, Endianness : Big
Codec ID : A_AC3
Duration : 1h 24mn
Bit rate mode : Constant
Bit rate : 192 Kbps
Channel(s) : 2 channels
Channel positions : Front: L R
Sampling rate : 48.0 KHz
Bit depth : 16 bits
Compression mode : Lossy
Stream size : 116 MiB (8%)
Language : Chinese
Default : No
Forced : No

log x.264

264 [info]: frame I:1239  Avg QP:15.40  size: 50300
x264 [info]: frame P:30137 Avg QP:19.14 size: 19714
x264 [info]: frame B:95549 Avg QP:22.26 size: 6633
x264 [info]: consecutive B-frames: 2.4% 3.5% 16.4% 22.2% 12.1% 41.8% 1.0% 0.3% 0.3%
x264 [info]: mb I I16..4: 7.6% 60.5% 32.0%
x264 [info]: mb P I16..4: 1.6% 25.7% 4.5% P16..4: 21.8% 26.0% 12.6% 3.4% 0.6% skip: 3.9%
x264 [info]: mb B I16..4: 0.2% 4.4% 0.6% B16..8: 33.5% 25.2% 4.9% direct: 7.3% skip:23.9% L0:33.9% L1:43.0% BI:23.1%
x264 [info]: final ratefactor: 16.48
x264 [info]: 8x8 transform intra:80.4% inter:56.4%
x264 [info]: direct mvs spatial:100.0% temporal:0.0%
x264 [info]: coded y,uvDC,uvAC intra: 94.3% 83.3% 53.9% inter: 37.1% 27.3% 9.7%
x264 [info]: i16 v,h,dc,p: 26% 15% 10% 48%
x264 [info]: i8 v,h,dc,ddl,ddr,vr,hd,vl,hu: 10% 9% 6% 9% 13% 13% 13% 12% 14%
x264 [info]: i4 v,h,dc,ddl,ddr,vr,hd,vl,hu: 12% 12% 6% 8% 13% 13% 13% 11% 13%
x264 [info]: i8c dc,h,v,p: 31% 28% 23% 18%
x264 [info]: Weighted P-Frames: Y:4.0% UV:1.6%
x264 [info]: ref P L0: 49.1% 14.6% 16.5% 5.0% 4.2% 2.6% 2.4% 1.3% 1.3% 1.0% 1.0% 0.9% 0.3% 0.0%
x264 [info]: ref B L0: 85.5% 8.1% 2.6% 1.3% 0.8% 0.6% 0.4% 0.3% 0.2% 0.2% 0.1%
x264 [info]: ref B L1: 95.5% 4.5%
x264 [info]: kb/s:2033.02
x264 [total]: encoded 126925 frames, 12.77 fps, 2033.02 kb/s

Скриншоты

Яндекс.Метрика
Рейтинг@Mail.ru