[ Сегодня на трекере фрилич! Идет свободное скачивание без начисления Download ]

(Heavy Metal) Renegade - Thunder Knows No Mercy - 2014 [FLAC, image+.cue, lossless]

 

Создавать темы 02-Янв-2015 16:39

-Renegade / Thunder Knows No Mercy-- Год издания: 2014
Страна: Italy
Жанр: Heavy Metal
Продолжительность: 00:44:47-Лейбл издания: Pure Underground Records
Страна-выпуска диска: Germany
Номер по каталогу: PURCD021
Формат: FLAC
Битрейт аудио: lossless
Тип рипа: image+.cue
Наличие сканов в содержимом раздачи: да
-

Трэклист

01.Nobody Lives Forever (04:49)
02.The World is Dying (03:30)
03.Into The Flame (05:55)
04.Awaiting the Storm (06:09)
05.The Endless Day (04:41)
06.Screaming on the Edge (05:19)
07.Trail of Tears (08:42)
08.Thunder Knows No Mercy (05:37)

Лог создания рипа

Exact Audio Copy V1.0 beta 3 from 29. August 2011
EAC extraction logfile from 25. December 2014, 17:27
Renegade / Thunder Knows No Mercy
Used drive  : Optiarc DVD RW AD-7260S   Adapter: 1  ID: 1
Read mode               : Secure
Utilize accurate stream : Yes
Defeat audio cache      : Yes
Make use of C2 pointers : No
Read offset correction                      : 48
Overread into Lead-In and Lead-Out          : No
Fill up missing offset samples with silence : Yes
Delete leading and trailing silent blocks   : No
Null samples used in CRC calculations       : Yes
Used interface                              : Native Win32 interface for Win NT & 2000
Used output format : Internal WAV Routines
Sample format      : 44.100 Hz; 16 Bit; Stereo
TOC of the extracted CD
Track |   Start  |  Length  | Start sector | End sector
---------------------------------------------------------
1  |  0:00.00 |  4:49.50 |         0    |    21724
2  |  4:49.50 |  3:30.25 |     21725    |    37499
3  |  8:20.00 |  5:55.42 |     37500    |    64166
4  | 14:15.42 |  6:09.52 |     64167    |    91893
5  | 20:25.19 |  4:41.59 |     91894    |   113027
6  | 25:07.03 |  5:19.38 |    113028    |   136990
7  | 30:26.41 |  8:42.56 |    136991    |   176196
8  | 39:09.22 |  5:37.59 |    176197    |   201530
Range status and errors
Selected range
Filename C:\Мои документы\Renegade - 2014 - Thunder Knows No Mercy.wav
Peak level 99.8 %
Extraction speed 3.7 X
Range quality 100.0 %
Test CRC BEC3833B
Copy CRC BEC3833B
Copy OK
No errors occurred
AccurateRip summary
Track  1  not present in database
Track  2  not present in database
Track  3  not present in database
Track  4  not present in database
Track  5  not present in database
Track  6  not present in database
Track  7  not present in database
Track  8  not present in database
None of the tracks are present in the AccurateRip database
End of status report
---- CUETools DB Plugin V2.1.4
[CTDB TOCID: A1kLocDp80.8g7JDuZkEdsR0F5w-] found
Submit result: A1kLocDp80.8g7JDuZkEdsR0F5w- has been confirmed
Track | CTDB Status
1   | (1/1) Accurately ripped
2   | (1/1) Accurately ripped
3   | (1/1) Accurately ripped
4   | (1/1) Accurately ripped
5   | (1/1) Accurately ripped
6   | (1/1) Accurately ripped
7   | (1/1) Accurately ripped
8   | (1/1) Accurately ripped

Индексная карта (non-compilant .cue)

REM GENRE "Heavy Metal"
REM DATE 2014
REM DISCID 620A7F08
REM COMMENT "ExactAudioCopy v1.0b3"
PERFORMER "Renegade"
TITLE "Thunder Knows No Mercy"
FILE "Renegade - 2014 - Thunder Knows No Mercy.flac" WAVE
TRACK 01 AUDIO
TITLE "Nobody Lives Forever"
PERFORMER "Renegade"
ISRC DEOM31400264
INDEX 01 00:00:00
TRACK 02 AUDIO
TITLE "The World is Dying"
PERFORMER "Renegade"
ISRC DEOM31400265
INDEX 01 04:49:50
TRACK 03 AUDIO
TITLE "Into The Flame"
PERFORMER "Renegade"
ISRC DEOM31400266
INDEX 01 08:20:00
TRACK 04 AUDIO
TITLE "Awaiting the Storm"
PERFORMER "Renegade"
ISRC DEOM31400267
INDEX 01 14:15:42
TRACK 05 AUDIO
TITLE "The Endless Day"
PERFORMER "Renegade"
ISRC DEOM31400268
INDEX 01 20:25:19
TRACK 06 AUDIO
TITLE "Screaming on the Edge"
PERFORMER "Renegade"
ISRC DEOM31400269
INDEX 01 25:07:03
TRACK 07 AUDIO
TITLE "Trail of Tears"
PERFORMER "Renegade"
ISRC DEOM31400270
INDEX 01 30:26:41
TRACK 08 AUDIO
TITLE "Thunder Knows No Mercy"
PERFORMER "Renegade"
ISRC DEOM31400271
INDEX 01 39:09:22
--
Яндекс.Метрика
Рейтинг@Mail.ru