[ Сегодня на трекере фрилич! Идет свободное скачивание без начисления Download ]

Юмор года. Части №1-2 (2015.01.02) SATRip

 

Создавать темы 02-Янв-2015 15:26

- Юмор года (2014) SATRip - Режиссер / Телекомпания:
Россия
Русское название: Юмор года
Год выпуска: 2014
Жанр: Телепередача, юмор
Описание:
На телеканале "Россия" летняя Юрмала встречает Новый год со смехом. Ни летняя жара, ни зимний холод не мешают артистам, не теряющим чувства юмора при любой погоде, веселить публику.
Международный фестиваль "Юрмала-2014" - главное юмористическое событие уходящего года!
В праздничном дайджесте фестиваля телезрителей ждут незабываемые встречи с любимыми артистами.
Часть 1-я:
Игорь Маменко поведает о пользе и вреде новогоднего застолья, а Юрий Аскаров покажет, как правильно вести себя на дорогах.
Мэтр юмора Евгений Петросян выступит с традиционным новогодним докладом. Елена Степаненко расскажет о том, как сохранить семью.
Владимир Винокур предъявит "Алиби", Елена Воробей посмеется над "Модным приговором", а Сергей Дроботенко приготовил необычный подарок всем женщинам.
Часть 2-я:
"Новым русским бабкам" Новый год не помешает вспомнить о дне рождения. Игорь Маменко оправится в Карловы Вары, чтобы понять, где лучше лечиться – за рубежом или оставшись дома.
Елена Воробей порадует музыкальными пародиями, Юрий Гальцев - пантомимой, а Елена Степаненко ненадолго превратится в блондинку.
Ведущие: Сергей Дроботенко, Николай Басков, Геннадий Ветров, Юрий Гальцев, Роман Емельянов
Продолжительность: ~ 02:52:03
Видеокодек: XviD
Битрейт видео: ~1800 kb/s
Размер кадра: 720 x 400
Качество видео: SATRip
Аудиокодек: MP3, 2ch.
Битрейт аудио: 128 kb/s

MediaInfo

Формат : AVI
Формат/Информация : Audio Video Interleave
Размер файла : 1,18 Гбайт
Продолжительность : 1 ч. 26 м.
Общий поток : 1937 Кбит/сек
Программа кодирования : VirtualDubMod 1.5.10.3 | www.virtualdub-fr.org || (build 2550/release)
Библиотека кодирования : VirtualDubMod build 2550/release
Видео
Идентификатор : 0
Формат : MPEG-4 Visual
Профиль формата : Advanced [email protected]
Параметр BVOP формата : 2
Параметр QPel формата : Нет
Параметр GMC формата : Без точки перехода
Параметр матрицы формата : Default (MPEG)
Идентификатор кодека : XVID
Идентификатор кодека/Подсказка : XviD
Продолжительность : 1 ч. 26 м.
Битрейт : 1799 Кбит/сек
Ширина : 720 пикселей
Высота : 400 пикселей
Соотношение сторон : 16:9
Частота кадров : 25,000 кадров/сек
Цветовое пространство : YUV
Субдискретизация насыщенности : 4:2:0
Битовая глубина : 8 бит
Тип развёртки : Прогрессивная
Метод сжатия : С потерями
Бит/(Пиксели*Кадры) : 0.250
Размер потока : 1,09 Гбайт (93%)
Библиотека кодирования : XviD 1.2.1 (UTC 2008-12-04)
Аудио
Идентификатор : 1
Формат : MPEG Audio
Версия формата : Version 1
Профиль формата : Layer 3
Режим : Joint stereo
Идентификатор кодека : 55
Идентификатор кодека/Подсказка : MP3
Продолжительность : 1 ч. 26 м.
Вид битрейта : Постоянный
Битрейт : 128 Кбит/сек
Каналы : 2 канала
Частота : 48,0 КГц
Метод сжатия : С потерями
Размер потока : 79,6 Мбайт (7%)
Выравнивание : Соединение по промежуткам
Продолжительность промежутка : 40 мс. (1,00 видеокадр)
Время предзагрузки промежутка : 504 мс.
Скриншоты:

Время раздачи: 24/7. До первых 5 скачавших.
Яндекс.Метрика
Рейтинг@Mail.ru