[ Сегодня на трекере фрилич! Идет свободное скачивание без начисления Download ]

Новая подружка / Une nouvelle amie (2014) WEB-DL [H.264/1080p-LQ]

 

Создавать темы 02-Янв-2015 13:16

-Новая подружка / Une nouvelle amie (2014) WEB-DL- Год выпуска: 2014
Жанр: Драма-Описание фильма:Клэр переживает смерть лучшей подруги — они были неразлучны с детства, делили радости и переживания отрочества, одновременно вышли замуж. Убитый горем вдовец предлагает Клэр остроумный способ выбраться из депрессии…-Режиссер: Франсуа Озон
Актеры: Ромен Дюрис, Анаис Демустье, Рафаэль Персонас, Изильд Ле Беско, Аврора Клеман, Жан-Клод Боль-Редда, Брюно Перар, Клодин Чатель, Анита Жилье, Алекс Фонджа-Продолжительность: 01:48:01
Качество видео: WEB-DL [1080p]
Перевод: Дублированный--Видео: MPEG-4 AVC, 1920x1040, ~4000 Кбит/с
Аудио: AC3, 2 ch, 192 Кбит/с-

Скриншоты:

MediaInfo

Общее
Уникальный идентификатор                 : 225077057241874050931556430634242843876 (0xA95443B1ECC64048BC4DBB8E461CA4E4)
Полное имя                               : D:\Upload\Une.Nouvelle.Amie.2014.D.WEB-DL.1080p.uniongang.tv.mkv
Формат                                   : Matroska
Версия формата                           : Version 4 / Version 2
Размер файла                             : 3,16 Гбайт
Продолжительность                        : 1 ч. 48 м.
Общий поток                              : 4193 Кбит/сек
Дата кодирования                         : UTC 2014-12-26 15:00:05
Программа кодирования                    : mkvmerge v7.2.0 ('On Every Street') 64bit built on Sep 13 2014 15:52:10
Библиотека кодирования                   : libebml v1.3.0 + libmatroska v1.4.1
_STATISTICS_WRITING_APP                  : mkvmerge v7.2.0 ('On Every Street') 64bit built on Sep 13 2014 15:52:10
_STATISTICS_WRITING_DATE_UTC             : 2014-12-26 15:00:05
_STATISTICS_TAGS                         : BPS DURATION NUMBER_OF_FRAMES NUMBER_OF_BYTES
DURATION                                 : 01:48:01.504000000
NUMBER_OF_FRAMES                         : 202547
NUMBER_OF_BYTES                          : 155556096
Видео
Идентификатор                            : 1
Формат                                   : AVC
Формат/Информация                        : Advanced Video Codec
Профиль формата                          : [url=mailto:[email protected]][email protected][/url]
Параметр CABAC формата                   : Да
Параметр ReFrames формата                : 3 кадра
Идентификатор кодека                     : V_MPEG4/ISO/AVC
Продолжительность                        : 1 ч. 48 м.
Битрейт                                  : 4000 Кбит/сек
Ширина                                   : 1920 пикселей
Высота                                   : 1040 пикселей
Соотношение сторон                       : 1,85:1
Режим частоты кадров                     : Постоянный
Частота кадров                           : 25,000 кадров/сек
Цветовое пространство                    : YUV
Субдискретизация насыщенности            : 4:2:0
Битовая глубина                          : 8 бит
Тип развёртки                            : Прогрессивная
Бит/(Пиксели*Кадры)                      : 0.080
Размер потока                            : 2,96 Гбайт (93%)
Библиотека кодирования                   : x264 core 142 r2389 956c8d8
Настройки программы                      : cabac=1 / ref=3 / deblock=1:0:0 / analyse=0x3:0x133 / me=umh / subme=7 / psy=1 / psy_rd=1.00:0.00 / mixed_ref=1 / me_range=32 / chroma_me=1 / trellis=2 / 8x8dct=1 / cqm=0 / deadzone=21,11 / fast_pskip=1 / chroma_qp_offset=-2 / threads=12 / lookahead_threads=2 / sliced_threads=0 / nr=0 / decimate=1 / interlaced=0 / bluray_compat=0 / constrained_intra=0 / bframes=0 / weightp=0 / keyint=75 / keyint_min=26 / scenecut=40 / intra_refresh=0 / rc_lookahead=50 / rc=2pass / mbtree=0 / bitrate=4000 / ratetol=1.0 / qcomp=0.20 / qpmin=10 / qpmax=51 / qpstep=4 / cplxblur=20.0 / qblur=0.5 / vbv_maxrate=5000 / vbv_bufsize=5000 / nal_hrd=none / filler=0 / ip_ratio=1.40 / aq=1:1.00
Default                                  : Да
Forced                                   : Нет
Основные цвета                           : BT.709
Характеристики трансфера                 : BT.709
Коэффициенты матрицы                     : BT.709
colour_range                             : Limited
Аудио
Идентификатор                            : 2
Формат                                   : AC-3
Формат/Информация                        : Audio Coding 3
Расширение режима                        : CM (complete main)
Параметр Endianness формата              : Big
Идентификатор кодека                     : A_AC3
Продолжительность                        : 1 ч. 48 м.
Вид битрейта                             : Постоянный
Битрейт                                  : 192 Кбит/сек
Каналы                                   : 2 канала
Расположение каналов                     : Front: L R
Частота                                  : 48,0 КГц
Битовая глубина                          : 16 бит
Метод сжатия                             : С потерями
Размер потока                            : 148 Мбайт (5%)
Язык                                     : Russian
Default                                  : Да
Forced                                   : Нет
Яндекс.Метрика
Рейтинг@Mail.ru