Бродяга Кэнсин: Великий киотский пожар / Rurôni Kenshin: Kyoto Taika-hen (2014) HDRip [H.264]

 

Создавать темы 02-Янв-2015 13:13

-Бродяга Кэнсин: Великий киотский пожар / Ruroni Kenshin: Kyoto Taika-hen (2014) HDRip [H.264]
«Fate Hangs On His Sword»
- Год выпуска: 2014
Производство: Япония / Warner Bros., Amuse, Shueisha
Жанр: боевик, драма, история
Режиссер: Кейси Отомо
Сценарий: Нобухиро Вацуки
Продюсер: Сатоси Фукусима, Уильям Иретон, Хироёси Койвай
Актеры: Тацуя Фудзивара, Мин Танака, Аои Ю, Такеру Сато, Юсукэ Исейа, Рюноскэ Камики, Эми Такеи, Йосукэ Эгути, Лиза Ульель, Мунэтака Аоки
Описание:
Продолжение истории о похождениях Кэнсина Химуры, некогда легендарного убийцы, вступившего на путь искупления. На этот раз Кэнсин вступает в противостояние с самим Шишио Макото, злодеем, вознамерившимся свергнуть правительство Мэйдзи и подчинить себе всю Японию. Судьба страны висит на волоске, и скиталец-самурай Химура вновь берет в руки меч, к которому он поклялся никогда не прикасаться снова.
Перевод: Любительский (двухголосый закадровый)
Вид субтитров: Вшитые отключаемые
Язык субтитров: Английский

Дата мировой премьеры: 1 августа 2014
Рейтинг MPAA: -
Возраст: -
Продолжительность: 02:18:41
Качество: HDRip [576p]
Видео: MPEG-4 AVC/H.264, 1024x436 (2.35:1), 2675 kbps, 23.976 fps
Аудио #1: Русский - AC3 / 5.1 / 384 Kbps / 48.0 KHz - Любительский (двухголосый закадровый) (Влад & Снежинка) - по переводу (akira9)
Аудио #2: Японский - AC3 / 5.1 / 640 Kbps / 48.0 KHz - Оригинальный

MediaInfo

General
Unique ID                   : 254242052371165432043443696513469134887 (0xBF453CF9429F90768240640B9A343827)
Complete name               : C:\Downloads\Rurouni.Kenshin.Kyoto.Inferno.2014.HDRip.576p.L2.mkv
Format                      : Matroska
Format version              : Version 4 / Version 2
File size                   : 3.66 GiB
Duration                    : 2h 18mn
Overall bit rate            : 3 774 Kbps
Movie name                  : Rurouni Kenshin: Kyoto Inferno (2014)
Encoded date                : UTC 2014-12-28 18:49:34
Writing application         : mkvmerge v7.4.0 ('Circles') 64bit built on Dec 12 2014 12:19:56
Writing library             : libebml v1.3.0 + libmatroska v1.4.1
Attachements                : info.txt / cover.jpg
_STATISTICS_WRITING_APP     : mkvmerge v7.4.0 ('Circles') 64bit built on Dec 12 2014 12:19:56
_STATISTICS_WRITING_DATE_UT : 2014-12-28 18:49:34
_STATISTICS_TAGS            : BPS DURATION NUMBER_OF_FRAMES NUMBER_OF_BYTES
DURATION                    : 02:10:28.870000000
NUMBER_OF_FRAMES            : 1040
NUMBER_OF_BYTES             : 25333
Video
ID                          : 1
Format                      : AVC
Format/Info                 : Advanced Video Codec
Format profile              : [url=mailto:[email protected]][email protected][/url]
Format settings, CABAC      : Yes
Format settings, ReFrames   : 9 frames
Codec ID                    : V_MPEG4/ISO/AVC
Duration                    : 2h 18mn
Bit rate                    : 2 675 Kbps
Width                       : 1 024 pixels
Height                      : 428 pixels
Display aspect ratio        : 2.40:1
Frame rate mode             : Constant
Frame rate                  : 23.976 fps
Color space                 : YUV
Chroma subsampling          : 4:2:0
Bit depth                   : 8 bits
Scan type                   : Progressive
Bits/(Pixel*Frame)          : 0.255
Stream size                 : 2.59 GiB (71%)
Title                       : Rurouni Kenshin: Kyoto Inferno (2014)
Language                    : Japanese
Default                     : Yes
Forced                      : No
Color primaries             : BT.709
Transfer characteristics    : BT.709
Matrix coefficients         : BT.709
Color range                 : Limited
DURATION                    : 02:18:41.313000000
NUMBER_OF_FRAMES            : 199512
NUMBER_OF_BYTES             : 2858642558
_STATISTICS_WRITING_APP     : mkvmerge v7.4.0 ('Circles') 64bit built on Dec 12 2014 12:19:56
_STATISTICS_WRITING_DATE_UT : 2014-12-28 18:49:34
_STATISTICS_TAGS            : BPS DURATION NUMBER_OF_FRAMES NUMBER_OF_BYTES
Audio #1
ID                          : 2
Format                      : AC-3
Format/Info                 : Audio Coding 3
Mode extension              : CM (complete main)
Format settings, Endianness : Big
Codec ID                    : A_AC3
Duration                    : 2h 18mn
Bit rate mode               : Constant
Bit rate                    : 384 Kbps
Channel(s)                  : 6 channels
Channel positions           : Front: L C R, Side: L R, LFE
Sampling rate               : 48.0 KHz
Bit depth                   : 16 bits
Compression mode            : Lossy
Stream size                 : 381 MiB (10%)
Title                       : DVO [DeadSno & den904] tr [akira9]
Language                    : Russian
Default                     : Yes
Forced                      : Yes
Audio #2
ID                          : 3
Format                      : AC-3
Format/Info                 : Audio Coding 3
Mode extension              : CM (complete main)
Format settings, Endianness : Big
Codec ID                    : A_AC3
Duration                    : 2h 18mn
Bit rate mode               : Constant
Bit rate                    : 640 Kbps
Channel(s)                  : 6 channels
Channel positions           : Front: L C R, Side: L R, LFE
Sampling rate               : 48.0 KHz
Bit depth                   : 16 bits
Compression mode            : Lossy
Stream size                 : 635 MiB (17%)
Title                       : original
Language                    : Japanese
Default                     : No
Forced                      : No
Text
ID                          : 4
Format                      : UTF-8
Codec ID                    : S_TEXT/UTF8
Codec ID/Info               : UTF-8 Plain Text
Language                    : English
Default                     : No
Forced                      : No
Menu
00:00:00.000                : en:00:00:00.000
00:07:14.684                : en:00:07:14.684
00:20:50.457                : en:00:20:50.457
00:35:47.145                : en:00:35:47.145
00:49:13.784                : en:00:49:13.784
01:02:55.438                : en:01:02:55.438
01:18:15.440                : en:01:18:15.440
01:32:29.752                : en:01:32:29.752
01:40:35.154                : en:01:40:35.154
01:52:25.488                : en:01:52:25.488
02:03:46.836                : en:02:03:46.836
02:13:54.860                : en:02:13:54.860
02:18:41.313                : en:02:18:41.313

x264 лог

x264 [info]: frame I:1415  Avg QP:15.30  size:103075
x264 [info]: frame P:50333 Avg QP:19.20  size: 28772
x264 [info]: frame B:147764 Avg QP:20.57  size:  8558
x264 [info]: consecutive B-frames:  3.7%  4.7% 11.0% 27.5% 20.3% 27.3%  3.4%  0.9%  0.5%  0.5%  0.2%  0.1%
x264 [info]: mb I  I16..4: 12.9% 62.2% 24.9%
x264 [info]: mb P  I16..4:  0.3%  5.6%  1.6%  P16..4: 23.4% 34.0% 20.5% 10.5%  2.6%    skip: 1.6%
x264 [info]: mb B  I16..4:  0.0%  0.9%  0.3%  B16..8: 36.4% 20.9%  4.6%  direct: 7.5%  skip:29.5%  L0:38.7% L1:44.5% BI:16.7%
x264 [info]: 8x8 transform intra:72.4% inter:50.9%
x264 [info]: coded y,uvDC,uvAC intra: 96.4% 88.8% 67.2% inter: 28.4% 23.0% 11.8%
x264 [info]: i16 v,h,dc,p: 14% 15% 20% 51%
x264 [info]: i8 v,h,dc,ddl,ddr,vr,hd,vl,hu:  8%  8%  5% 11% 15% 13% 13% 12% 14%
x264 [info]: i4 v,h,dc,ddl,ddr,vr,hd,vl,hu: 10%  7%  4%  9% 16% 15% 15% 12% 13%
x264 [info]: i8c dc,h,v,p: 16%  9%  9% 66%
x264 [info]: Weighted P-Frames: Y:4.4% UV:1.8%
x264 [info]: ref P L0: 49.5% 11.5% 15.4%  6.6%  4.9%  4.1%  3.4%  2.1%  2.0%  0.5%  0.0%
x264 [info]: ref B L0: 76.0% 10.4%  5.7%  2.7%  2.1%  1.7%  1.0%  0.3%
x264 [info]: ref B L1: 92.1%  7.9%
x264 [info]: kb/s:2748.26

Скриншоты:

Яндекс.Метрика
Рейтинг@Mail.ru