Бродяга Кэнсин / Ruroni Kenshin: Meiji kenkaku roman tan (2012) HDRip [H.264]

 

Создавать темы 02-Янв-2015 13:12

-Бродяга Кэнсин / Ruroni Kenshin: Meiji kenkaku roman tan (2012) HDRip [H.264]
- Год выпуска: 2012
Производство: Япония / C&I Entertainment, IMJ Entertainment, RoC Works Co.
Жанр: боевик, драма, история
Режиссер: Кейси Отомо
Сценарий: Нобухиро Вацуки, Киёми Фудзий, Кейдзи Отомо
Продюсер: Синдзо Мацухаси, Уильям Иретон
Актеры: Аои Ю, Теруюки Кагава, Йосукэ Егути, Такэру Сато, Еми Такэй, Мунэтака Аоки, Кёдзи Киккава, Танака Такэто
Описание:
После окончания многолетней гражданской войны бывший наемный убийца Кэнсин Химура становится бродягой и приносит клятву защищать всех, кто в этом нуждается, никого при этом не убивая. В ходе своих путешествий он встречается с Каору, чей отец работает учителем в собственной школе кэндо в Токио. В здании этой школы наркобарон Такеда желает наладить производство опиума, однако сталкивается с неожиданным противодействием со стороны Кэнсина и его новых друзей, объединившихся против общего врага...
Перевод: Любительский (многоголосый закадровый), Любительский (двухголосый закадровый)x2
Вид субтитров: Вшитые отключаемые
Язык субтитров: Русский

Дата мировой премьеры: 25 августа 2012
Рейтинг MPAA: -
Возраст: -
Продолжительность: 02:14:27
Качество: HDRip [576p]
Видео: MPEG-4 AVC/H.264, 1024x436 (2.35:1), 2 402 kbps, 23.976 fps
Аудио #1: Русский - AC3 / 5.1 / 640 Kbps / 48.0 KHz - Любительский (многоголосый закадровый) (AniFilm)
Аудио #2: Русский - AC3 / 5.1 / 448 Kbps / 48.0 KHz - Любительский (двухголосый закадровый) (Ворон и Трина Дубовицкая)
Аудио #3: Русский - AC3 / 2.0 / 192 Kbps / 48.0 KHz - Любительский (двухголосый закадровый) (Влад & Снежинка)
Аудио #4: Японский - AC3 / 5.1 / 448 Kbps / 48.0 KHz - Оригинальный

MediaInfo

General
Unique ID                   : 221548158633284697504680092982504858270 (0xA6AC9F8F8313C85E944475674EF0229E)
Complete name               : C:\CREATE\264mod1\out\Rurouni.Kenshin.2012.HDRip.576p.LL2.mkv
Format                      : Matroska
Format version              : Version 4 / Version 2
File size                   : 3.88 GiB
Duration                    : 2h 14mn
Overall bit rate            : 4 132 Kbps
Movie name                  : Rurouni Kenshin (2012)
Encoded date                : UTC 2014-12-28 06:59:58
Writing application         : mkvmerge v7.4.0 ('Circles') 64bit built on Dec 12 2014 12:19:56
Writing library             : libebml v1.3.0 + libmatroska v1.4.1
Attachements                : info.txt / cover.jpg
DURATION                    : 02:13:44.236000000
NUMBER_OF_FRAMES            : 1102
NUMBER_OF_BYTES             : 33448
_STATISTICS_WRITING_APP     : mkvmerge v7.4.0 ('Circles') 64bit built on Dec 12 2014 12:19:56
_STATISTICS_WRITING_DATE_UT : 2014-12-28 06:59:58
_STATISTICS_TAGS            : BPS DURATION NUMBER_OF_FRAMES NUMBER_OF_BYTES
Video
ID                          : 1
Format                      : AVC
Format/Info                 : Advanced Video Codec
Format profile              : [url=mailto:[email protected]][email protected][/url]
Format settings, CABAC      : Yes
Format settings, ReFrames   : 9 frames
Codec ID                    : V_MPEG4/ISO/AVC
Duration                    : 2h 14mn
Bit rate                    : 2 321 Kbps
Width                       : 1 024 pixels
Height                      : 428 pixels
Display aspect ratio        : 2.40:1
Frame rate mode             : Constant
Frame rate                  : 23.976 fps
Color space                 : YUV
Chroma subsampling          : 4:2:0
Bit depth                   : 8 bits
Scan type                   : Progressive
Bits/(Pixel*Frame)          : 0.221
Stream size                 : 2.18 GiB (56%)
Title                       : Rurouni Kenshin (2012)
Language                    : English
Default                     : Yes
Forced                      : No
Color primaries             : BT.709
Transfer characteristics    : BT.709
Matrix coefficients         : BT.709
Color range                 : Limited
DURATION                    : 02:14:26.058000000
NUMBER_OF_FRAMES            : 193392
NUMBER_OF_BYTES             : 2420909352
_STATISTICS_WRITING_APP     : mkvmerge v7.4.0 ('Circles') 64bit built on Dec 12 2014 12:19:56
_STATISTICS_WRITING_DATE_UT : 2014-12-28 06:59:58
_STATISTICS_TAGS            : BPS DURATION NUMBER_OF_FRAMES NUMBER_OF_BYTES
Audio #1
ID                          : 2
Format                      : AC-3
Format/Info                 : Audio Coding 3
Mode extension              : CM (complete main)
Format settings, Endianness : Big
Codec ID                    : A_AC3
Duration                    : 2h 14mn
Bit rate mode               : Constant
Bit rate                    : 640 Kbps
Channel(s)                  : 6 channels
Channel positions           : Front: L C R, Side: L R, LFE
Sampling rate               : 48.0 KHz
Bit depth                   : 16 bits
Compression mode            : Lossy
Stream size                 : 615 MiB (15%)
Title                       : MVO [AniFilm]
Language                    : Russian
Default                     : Yes
Forced                      : Yes
Audio #2
ID                          : 3
Format                      : AC-3
Format/Info                 : Audio Coding 3
Mode extension              : CM (complete main)
Format settings, Endianness : Big
Codec ID                    : A_AC3
Duration                    : 2h 14mn
Bit rate mode               : Constant
Bit rate                    : 448 Kbps
Channel(s)                  : 6 channels
Channel positions           : Front: L C R, Side: L R, LFE
Sampling rate               : 48.0 KHz
Bit depth                   : 16 bits
Compression mode            : Lossy
Stream size                 : 431 MiB (11%)
Title                       : DVO [Voron & Trina Dubovitskaya]
Language                    : Russian
Default                     : No
Forced                      : No
Audio #3
ID                          : 4
Format                      : AC-3
Format/Info                 : Audio Coding 3
Mode extension              : CM (complete main)
Format settings, Endianness : Big
Codec ID                    : A_AC3
Duration                    : 2h 14mn
Bit rate mode               : Constant
Bit rate                    : 192 Kbps
Channel(s)                  : 2 channels
Channel positions           : Front: L R
Sampling rate               : 48.0 KHz
Bit depth                   : 16 bits
Compression mode            : Lossy
Stream size                 : 185 MiB (5%)
Title                       : DVO [den904 & DeadSno]
Language                    : Russian
Default                     : No
Forced                      : No
Audio #4
ID                          : 5
Format                      : AC-3
Format/Info                 : Audio Coding 3
Mode extension              : CM (complete main)
Format settings, Endianness : Big
Codec ID                    : A_AC3
Duration                    : 2h 14mn
Bit rate mode               : Constant
Bit rate                    : 448 Kbps
Channel(s)                  : 6 channels
Channel positions           : Front: L C R, Side: L R, LFE
Sampling rate               : 48.0 KHz
Bit depth                   : 16 bits
Compression mode            : Lossy
Stream size                 : 431 MiB (11%)
Title                       : original
Language                    : Japanese
Default                     : No
Forced                      : No
Text #1
ID                          : 6
Format                      : UTF-8
Codec ID                    : S_TEXT/UTF8
Codec ID/Info               : UTF-8 Plain Text
Title                       : FCG Alyans
Language                    : Russian
Default                     : No
Forced                      : No
Text #2
ID                          : 7
Format                      : UTF-8
Codec ID                    : S_TEXT/UTF8
Codec ID/Info               : UTF-8 Plain Text
Title                       : Sinhito
Language                    : Russian
Default                     : No
Forced                      : No
Text #3
ID                          : 8
Format                      : UTF-8
Codec ID                    : S_TEXT/UTF8
Codec ID/Info               : UTF-8 Plain Text
Language                    : English
Default                     : No
Forced                      : No

x264 лог

x264 [info]: frame I:1454  Avg QP:16.16  size: 89518
x264 [info]: frame P:47554 Avg QP:18.96  size: 25067
x264 [info]: frame B:144384 Avg QP:20.08  size:  7610
x264 [info]: consecutive B-frames:  3.4%  4.0% 10.4% 26.6% 22.3% 27.7%  3.4%  0.9%  0.6%  0.4%  0.2%  0.1%
x264 [info]: mb I  I16..4: 13.5% 63.9% 22.6%
x264 [info]: mb P  I16..4:  0.3%  5.4%  1.3%  P16..4: 23.7% 35.9% 19.7% 10.3%  2.2%    skip: 1.3%
x264 [info]: mb B  I16..4:  0.0%  0.8%  0.2%  B16..8: 38.6% 21.5%  4.3%  direct: 6.9%  skip:27.7%  L0:38.9% L1:45.9% BI:15.3%
x264 [info]: 8x8 transform intra:74.2% inter:52.3%
x264 [info]: coded y,uvDC,uvAC intra: 96.3% 84.9% 59.1% inter: 27.7% 19.6% 8.3%
x264 [info]: i16 v,h,dc,p: 14% 14% 19% 53%
x264 [info]: i8 v,h,dc,ddl,ddr,vr,hd,vl,hu:  9%  8%  5% 11% 15% 13% 13% 13% 14%
x264 [info]: i4 v,h,dc,ddl,ddr,vr,hd,vl,hu: 10%  6%  4%  9% 16% 15% 15% 12% 13%
x264 [info]: i8c dc,h,v,p: 14%  9%  7% 69%
x264 [info]: Weighted P-Frames: Y:3.8% UV:1.3%
x264 [info]: ref P L0: 50.6% 11.5% 15.9%  6.2%  4.7%  3.8%  3.2%  1.9%  1.8%  0.5%  0.0%
x264 [info]: ref B L0: 77.7% 10.1%  5.1%  2.5%  1.9%  1.6%  0.9%  0.3%
x264 [info]: ref B L1: 92.7%  7.3%
x264 [info]: kb/s:2401.08

Скриншоты:

Яндекс.Метрика
Рейтинг@Mail.ru