Соломенная шляпка (1974) HDTV [1080i]

 

Создавать темы 02-Янв-2015 12:49

-Соломенная шляпка (1974) HDTV [1080i]- Русское название: Соломенная шляпка
Год выпуска: 1974
Страна: СССР / Ленфильм
Жанр: комедия, мелодрама, музыкальный фильм
Режиссер: Леонид Квинихидзе
Актеры: Андрей Миронов, Владислав Стржельчик, Зиновий Гердт, Ефим Копелян, Екатерина Васильева, Игорь Кваша, Людмила Гурченко, Алиса Фрейндлих, Михаил Козаков, Александр Бениаминов, Владимир Татосов, Ирина Магуто, Марина Старых, Сергей Мигицко, Евгения Ветлова, Александр Колпашников

Описание фильма:
Экранизация знаменитого французского водевиля Эжена Лабиша стала одним из шедевров советской комедии.
Обаятельный рантье решил жениться. А его лошадь решила съесть подвернувшуюся соломенную шляпку. Эти два решения породили целую цепь злоключений - не для лошади, разумеется, а для ее хозяина: "Или вы достанете шляпку, или свадьбы не будет...".-

Премьера:
4 января 1975 (ТВ, СССР)-Релиз от:
Продолжительность: 02:00:04
Качество видео: HDTV
Видео: MPEG-TS AVC, 6833 Кбит/с, 1920x1080
Аудио:
1. Русский: MP3, 2 ch, 192 Кбит/с
2. Русский: АС3, 2 ch, 384 Кбит/с (включена по умолчанию)

MediaInfo 0.7.62

Общее
Идентификатор                            : 20 (0x14)
Полное имя                               :\Solomennaya.shlapka.1974.HDTV_CMEGRoup.ts
Формат                                   : MPEG-TS
Размер файла                             : 6,54 Гбайт
Продолжительность                        : 1 ч. 59 м.
Режим общего битрейта                    : Переменный
Общий поток                              : 7802 Кбит/сек
Видео
Идентификатор                            : 305 (0x131)
Идентификатор меню                       : 20105 (0x4E89)
Формат                                   : AVC
Формат/Информация                        : Advanced Video Codec
Профиль формата                          : [url=mailto:[email protected]][email protected][/url]
Параметр CABAC формата                   : Да
Параметр ReFrames формата                : 3 кадра
Идентификатор кодека                     : 27
Продолжительность                        : 1 ч. 59 м.
Битрейт                                  : 6835 Кбит/сек
Ширина                                   : 1920 пикселей
Высота                                   : 1080 пикселей
Соотношение сторон                       : 16:9
Частота кадров                           : 25,000 кадров/сек
Стандарт вещания                         : Component
Цветовое пространство                    : YUV
Субдискретизация насыщенности            : 4:2:0
Битовая глубина                          : 8 бит
Тип развёртки                            : Чересстрочная
Порядок развёртки                        : Верхнее поле первое
Бит/(Пиксели*Кадры)                      : 0.132
Размер потока                            : 5,73 Гбайт (88%)
Основные цвета                           : BT.709
Характеристики трансфера                 : BT.709
Коэффициенты матрицы                     : BT.709
Аудио #1
Идентификатор                            : 405 (0x195)
Идентификатор меню                       : 20105 (0x4E89)
Формат                                   : MPEG Audio
Версия формата                           : Version 1
Профиль формата                          : Layer 2
Идентификатор кодека                     : 4
Продолжительность                        : 1 ч. 59 м.
Вид битрейта                             : Постоянный
Битрейт                                  : 192 Кбит/сек
Каналы                                   : 2 канала
Частота                                  : 48,0 КГц
Метод сжатия                             : С потерями
Задержка видео                           : 35 мс.
Размер потока                            : 165 Мбайт (2%)
Язык                                     : Russian
Язык, дополнительно                      : Clean effects
Аудио #2
Идентификатор                            : 415 (0x19F)
Идентификатор меню                       : 20105 (0x4E89)
Формат                                   : AC-3
Формат/Информация                        : Audio Coding 3
Расширение режима                        : CM (complete main)
Параметр Endianness формата              : Big
Идентификатор кодека                     : 6
Продолжительность                        : 1 ч. 59 м.
Вид битрейта                             : Постоянный
Битрейт                                  : 384 Кбит/сек
Каналы                                   : 2 канала
Расположение каналов                     : Front: L R
Частота                                  : 48,0 КГц
Битовая глубина                          : 16 бит
Метод сжатия                             : С потерями
Задержка видео                           : 32 мс.
Размер потока                            : 330 Мбайт (5%)
Язык                                     : Russian
Язык, дополнительно                      : Clean effects

Знаете ли Вы, что...

Козаков придумал своему герою Ахиллу де Розальба нетрадиционную сексуальную ориентацию, направленную на Фадинара. Миронов же в свою очередь отплатил сполна — в один из съемочных дней, находясь спиной к камере, в самый серьезный момент улыбнулся и показал Козакову… целый ряд золотых зубов, использовав для этого фольгу от шоколада. Козаков, естественно, раскололся, результатом чего явился здоровый смех, и 50 метров пленки было безнадежно испорчено.
«Соломенная шляпка» сослужила Миронову и Гурченко не только хорошую службу. Режиссер Эльдар Рязанов не утвердил их обоих по причине легковесности и водевильного имиджа на роли Жени Лукашина и Нади Шевелевой в «Иронии судьбы». Но по этой же самой иронии судьбы Рязанов как бы извинился перед ними, вставив в свою всенародную сказку фрагмент из «Соломенной шляпки», которую герои смотрят по телевизору в волшебную новогоднюю ночь.
Съемки велись в интерьерах старинного петербургского здания, где расположился Дом литераторов и в Тарту, Эстония.

Скриншоты:

Яндекс.Метрика
Рейтинг@Mail.ru