NG: Планета хищников / Planet Carnivore (2007) HDTVRip [H.264/720p-LQ]

 

Создавать темы 02-Янв-2015 08:45

-NG: Планета хищников / Planet Carnivore (2007) HDTVRip [H.264/720p-LQ]- Жанр: Документальный
Телекомпания: National Geographic Channel
Режиссер: Сью Хотон
Описание:
В этом документальном фильме вы узнаете о четырех самых диких и опасных хищниках живущих на планете Земля.--Перевод: Одноголосый закадровый, профессиональный
За рип Спасибо skorpionN
Продолжительность: 4 х ~00:47:30
Качество видео: HDTVRip 720p-LQ
Видео: MPEG-4 AVC/H.264, 1280x720 (16:9), 25.000 fps, 5 000 Kbps / 5 000 Kbps (0.205 bit/pixel)
Аудио: AC-3, 48.0 KHz, 2 ch, 192 Kbps, CBR

Список серий:

Серия 1. Большая белая акула / Great White Shark
Погрузитесь в воды южноафриканского залива False Bay и наблюдайте за самкой белой акулы по кличке Хаай. На протяжении пяти недель камера следует за Хаай, плавающей в поисках пищи.
Серия 2. Лев / Lion
Семь дней из жизни львиного семейства в кратере Нгоро-Нгоро, наполненные драматической борьбой за выживание.
Серия 3. Полярный медведь / Icebear
Для белой медведицы Бинни короткая норвежская весна - это критический период, за который ей надо успеть вдвое увеличить свой вес. Но привычная для нее добыча не появляется, и Бинни грозит голод.
Серия 4. Царь медведей / King Bear
Для медведей национального парка Катмай весна - время окончания спячки, начала ежегодного соперничества за добычу и брачных ритуалов. Следите за соревнованием медведей на звание "Царь медведей".

MediaInfo

Complete name \Planet Carnivore.HDTVRip 720p\01. Great.White Shark.HDTVRip 720p.mkv
Format : Matroska
Format version : Version 4 / Version 2
File size : 1.66 GiB
Duration : 47mn 29s
Overall bit rate mode : Constant
Overall bit rate : 5 008 Kbps
Encoded date : UTC 2014-12-31 09:27:39
Writing application : mkvmerge v7.3.0 ('Nouages') 64bit built on Oct 22 2014 18:53:34
Writing library : libebml v1.3.0 + libmatroska v1.4.1
DURATION : 00:47:29.680000000
NUMBER_OF_FRAMES : 71242
NUMBER_OF_BYTES : 1714654142
_STATISTICS_WRITING_APP : mkvmerge v7.3.0 ('Nouages') 64bit built on Oct 22 2014 18:53:34
_STATISTICS_WRITING_DATE_UTC : 2014-12-31 09:27:39
_STATISTICS_TAGS : BPS DURATION NUMBER_OF_FRAMES NUMBER_OF_BYTES
Video
ID : 1
Format : AVC
Format/Info : Advanced Video Codec
Format profile : [url=mailto:[email protected]][email protected][/url]
Format settings, CABAC : Yes
Format settings, ReFrames : 3 frames
Codec ID : V_MPEG4/ISO/AVC
Duration : 47mn 29s
Bit rate mode : Constant
Bit rate : 4 716 Kbps
Nominal bit rate : 5 000 Kbps / 5 000 Kbps
Width : 1 280 pixels
Height : 720 pixels
Display aspect ratio : 16:9
Frame rate mode : Constant
Frame rate : 25.000 fps
Standard : NTSC
Color space : YUV
Chroma subsampling : 4:2:0
Bit depth : 8 bits
Scan type : Progressive
Bits/(Pixel*Frame) : 0.205
Stream size : 1.56 GiB (94%)
Writing library : x264 core 114
Encoding settings : cabac=1 / ref=3 / deblock=1:0:0 / analyse=0x3:0x113 / me=hex / subme=7 / psy=1 / psy_rd=1.00:0.00 / mixed_ref=1 / me_range=16 / chroma_me=1 / trellis=1 / 8x8dct=1 / cqm=2 / deadzone=21,11 / fast_pskip=1 / chroma_qp_offset=-2 / threads=6 / sliced_threads=0 / slices=1 / nr=0 / decimate=1 / interlaced=0 / constrained_intra=0 / bframes=3 / b_pyramid=0 / b_adapt=1 / b_bias=0 / direct=1 / weightb=1 / open_gop=0 / weightp=2 / keyint=250 / keyint_min=25 / scenecut=40 / intra_refresh=0 / rc_lookahead=40 / rc=cbr / mbtree=1 / bitrate=5000 / ratetol=1.0 / qcomp=0.60 / qpmin=3 / qpmax=69 / qpstep=4 / vbv_maxrate=5000 / vbv_bufsize=4997 / nal_hrd=cbr / ip_ratio=1.40 / aq=1:1.00
Default : Yes
Forced : No
Color primaries : BT.709
Transfer characteristics : BT.709
Matrix coefficients : BT.709
Audio
ID : 2
Format : AC-3
Format/Info : Audio Coding 3
Mode extension : CM (complete main)
Format settings, Endianness : Big
Codec ID : A_AC3
Duration : 47mn 29s
Bit rate mode : Constant
Bit rate : 192 Kbps
Channel(s) : 2 channels
Channel positions : Front: L R
Sampling rate : 48.0 KHz
Bit depth : 16 bits
Compression mode : Lossy
Stream size : 65.2 MiB (4%)
Default : Yes
Forced : No
Скриншоты:
-Время раздачи: С 08:00 до 23:00, до первых 10-ти скачавших
Яндекс.Метрика
Рейтинг@Mail.ru