[ Сегодня на трекере фрилич! Идет свободное скачивание без начисления Download ]

Танцы. Выпуск 20 (2014.12.31) WEB-DLRip [H.264/720p-LQ]

 

Создавать темы 02-Янв-2015 08:39

- Танцы. Выпуск 20 (2014.12.31) WEB-DLRip [H.264/720p-LQ] - Режиссер / Телекомпания: ТНТ
Русское название: Танцы
Оригинальное название:
Год выпуска: 2014
Жанр: ТВ-Шоу
Выпущено: Россия
Описание:
«Танцы» - это яркий необычный сплав реалити-шоу и шоу талантов. В проекте примут участие 282 участника из 77 городов страны. На кону звание лучшего танцора России
Грандиозное шоу, участники которого будут бороться за звание лучшего танцора страны и главный приз - 3 000 000 рублей. Жюри, они же наставники конкурсантов - лучшие российские хореографы Егор Дружинин и Мигель.
Наставники: Егор Дружинин и Мигель
Ведущий: Ляйсан Утяшева
Продолжительность: 01:31:33
Видеокодек: AVC
Битрейт видео: ~3050 Кбит/сек
Размер кадра: 1280 x 720
Качество видео: WEB-DLRip
Аудиокодек: AC-3, 2ch.
Битрейт аудио: 192 Кбит/сек

MediaInfo:

Формат : Matroska
Версия формата : Version 2
Размер файла : 2,12 Гбайт
Продолжительность : 1 ч. 31 м.
Общий поток : 3309 Кбит/сек
Дата кодирования : UTC 2015-01-01 18:41:36
Программа кодирования : mkvmerge v6.1.0 ('Old Devil') built on Mar 4 2013 09:10:42
Библиотека кодирования : libebml v1.3.0 + libmatroska v1.4.0
Видео
Идентификатор : 1
Формат : AVC
Формат/Информация : Advanced Video Codec
Профиль формата : [url=mailto:[email protected]][email protected][/url]
Параметр CABAC формата : Да
Параметр ReFrames формата : 8 кадров
Идентификатор кодека : V_MPEG4/ISO/AVC
Продолжительность : 1 ч. 31 м.
Битрейт : 3052 Кбит/сек
Ширина : 1280 пикселей
Высота : 720 пикселей
Соотношение сторон : 16:9
Режим частоты кадров : Постоянный
Частота кадров : 25,000 кадров/сек
Цветовое пространство : YUV
Субдискретизация насыщенности : 4:2:0
Битовая глубина : 8 бит
Тип развёртки : Прогрессивная
Бит/(Пиксели*Кадры) : 0.132
Размер потока : 1,95 Гбайт (92%)
Default : Да
Forced : Нет
Аудио
Идентификатор : 2
Формат : AC-3
Формат/Информация : Audio Coding 3
Расширение режима : CM (complete main)
Параметр Endianness формата : Big
Идентификатор кодека : A_AC3
Продолжительность : 1 ч. 31 м.
Вид битрейта : Постоянный
Битрейт : 192 Кбит/сек
Каналы : 2 канала
Расположение каналов : Front: L R
Частота : 48,0 КГц
Битовая глубина : 16 бит
Метод сжатия : С потерями
Размер потока : 126 Мбайт (6%)
Default : Да
Forced : Нет
Скриншоты:
-Время раздачи: 24/7. До первых 5 скачавших.
Яндекс.Метрика
Рейтинг@Mail.ru