[ Сегодня на трекере фрилич! Идет свободное скачивание без начисления Download ]

Сказочная Русь. Президенты удачи / Вечерний Киев (2014) SATRip

 

Создавать темы 02-Янв-2015 08:35

- Сказочная Русь. Президенты удачи / Вечерний Киев (2014) SATRip - Режиссер / Телекомпания: 1+1
Русское название: Сказочная Русь
Год выпуска: 2014
Жанр: анимационный сериал, политика
Выпущено: Студия Квартал-95
Описание:
Спецпроект от создателей «Сказочной Руси». Мульфильм продолжительностью более часа по стечению обстоятельств напоминает легендарную комедию «Джентльмены удачи». Однако если герои фильма искали золотой шлем, то неугомонные Виктор Второй, Азиров, Царихов и прокурор Пшонка охотятся на нечто более ценное – золотой батон! Этот волшебный артефакт – их последняя надежда вернуть власть. Спецпроект «Сказочной Руси» насыщен веселыми и смешными музыкальными сюрпризами.
Режиссёр: Владимир Зеленский
В ролях: Михаил Саакашвили, Петр Порошенко, Владимир Зеленский, Виктор Янукович, Владимир Путин, Александр Лукашенко, Дмитрий Медведев, Николай Азаров, Виктор Ющенко, Наталия Королевская, Юлия Тимошенко, Володимир Литвин, Савик Шустер, Виталий Кличко, Дмитрий Киселёв, Виктор Ющенко, Савик Шустер, Леонид Кравчук, Леонид Кучма, Барак Обама, Ангела Меркель, Игорь Коломойский...
Продолжительность: ~ 01:13:23
Видеокодек: XVID
Битрейт видео: ~1900 kb/s
Размер кадра: 720 x 416
Качество видео: SATRip
Аудиокодек: MP3, 2ch.
Битрейт аудио: 192 kb/s

MediaInfo

Формат : AVI
Формат/Информация : Audio Video Interleave
Размер файла : 1,07 Гбайт
Продолжительность : 1 ч. 13 м.
Общий поток : 2097 Кбит/сек
Программа кодирования : VirtualDubMod 1.5.10.3 | www.virtualdub-fr.org || (build 2550/release)
Библиотека кодирования : VirtualDubMod build 2550/release
Видео
Идентификатор : 0
Формат : MPEG-4 Visual
Профиль формата : Advanced [email protected]
Параметр BVOP формата : 1
Параметр QPel формата : Нет
Параметр GMC формата : Без точки перехода
Параметр матрицы формата : Default (MPEG)
Идентификатор кодека : XVID
Идентификатор кодека/Подсказка : XviD
Продолжительность : 1 ч. 13 м.
Битрейт : 1895 Кбит/сек
Ширина : 720 пикселей
Высота : 416 пикселей
Соотношение сторон : 1,731
Частота кадров : 25,000 кадров/сек
Цветовое пространство : YUV
Субдискретизация насыщенности : 4:2:0
Битовая глубина : 8 бит
Тип развёртки : Прогрессивная
Метод сжатия : С потерями
Бит/(Пиксели*Кадры) : 0.253
Размер потока : 995 Мбайт (90%)
Библиотека кодирования : XviD 1.2.1 (UTC 2008-12-04)
Аудио
Идентификатор : 1
Формат : MPEG Audio
Версия формата : Version 1
Профиль формата : Layer 3
Режим : Joint stereo
Расширение режима : MS Stereo
Идентификатор кодека : 55
Идентификатор кодека/Подсказка : MP3
Продолжительность : 1 ч. 13 м.
Вид битрейта : Постоянный
Битрейт : 192 Кбит/сек
Каналы : 2 канала
Частота : 48,0 КГц
Метод сжатия : С потерями
Размер потока : 101 Мбайт (9%)
Выравнивание : Соединение по промежуткам
Продолжительность промежутка : 40 мс. (1,00 видеокадр)
Время предзагрузки промежутка : 504 мс.
Библиотека кодирования : LAME3.99r
Настройки программы : -m j -V 4 -q 2 -lowpass 18.6 -b 192
Скриншоты:
-
Время раздачи: 24/7. До первых 5 скачавших.
Rip by simkanetua
Яндекс.Метрика
Рейтинг@Mail.ru